Guest User

Untitled

a guest
Jun 10th, 2014
284
Never
Not a member of Pastebin yet? Sign Up, it unlocks many cool features!
  1. General
  2. Systemfehler.Wenn.Inge.Tanzt.2013.Blu.Ray.1080p.CINEMANIA.mkv
  3. Format : Matroska
  4. Format version : Version 4 / Version 2
  5. File size : 7.87 GiB
  6. Duration : 1h 42mn
  7. Overall bit rate : 11.0 Mbps
  8. Movie name : Release Group CINEMANIA
  9. Encoded date : UTC 2014-06-10 21:36:31
  10. Writing application : mkvmerge v7.0.0 ('Where We Going') 64bit built on Jun 9 2014 15:16:27
  11. Writing library : libebml v1.3.0 + libmatroska v1.4.1
  12.  
  13. Video
  14. ID : 1
  15. Format : AVC
  16. Format/Info : Advanced Video Codec
  17. Format profile : High@L4.1
  18. Format settings, CABAC : Yes
  19. Format settings, ReFrames : 5 frames
  20. Codec ID : V_MPEG4/ISO/AVC
  21. Duration : 1h 42mn
  22. Bit rate : 8 798 Kbps
  23. Width : 1 920 pixels
  24. Height : 804 pixels
  25. Display aspect ratio : 2.40:1
  26. Frame rate mode : Constant
  27. Frame rate : 24.000 fps
  28. Color space : YUV
  29. Chroma subsampling : 4:2:0
  30. Bit depth : 8 bits
  31. Scan type : Progressive
  32. Bits/(Pixel*Frame) : 0.237
  33. Stream size : 6.31 GiB (80%)
  34. Title : Release Group CINEMANIA
  35. Writing library : x264 core 125 r2200 999b753
  36. Encoding settings : cabac=1 / ref=5 / deblock=1:-2:-2 / analyse=0x3:0x113 / me=umh / subme=9 / psy=1 / psy_rd=1.00:0.00 / mixed_ref=1 / me_range=24 / chroma_me=1 / trellis=2 / 8x8dct=1 / cqm=0 / deadzone=21,11 / fast_pskip=0 / chroma_qp_offset=-2 / threads=12 / lookahead_threads=2 / sliced_threads=0 / nr=0 / decimate=1 / interlaced=0 / bluray_compat=0 / constrained_intra=0 / bframes=5 / b_pyramid=2 / b_adapt=1 / b_bias=0 / direct=3 / weightb=1 / open_gop=0 / weightp=2 / keyint=250 / keyint_min=24 / scenecut=40 / intra_refresh=0 / rc=crf / mbtree=0 / crf=19.0 / qcomp=0.60 / qpmin=16 / qpmax=69 / qpstep=4 / ip_ratio=1.40 / pb_ratio=1.30 / aq=1:1.00
  37. Language : German
  38. Default : Yes
  39. Forced : Yes
  40.  
  41. Audio #1
  42. ID : 2
  43. Format : AC-3
  44. Format/Info : Audio Coding 3
  45. Mode extension : CM (complete main)
  46. Format settings, Endianness : Big
  47. Codec ID : A_AC3
  48. Duration : 1h 42mn
  49. Bit rate mode : Constant
  50. Bit rate : 448 Kbps
  51. Channel(s) : 6 channels
  52. Channel positions : Front: L C R, Side: L R, LFE
  53. Sampling rate : 48.0 KHz
  54. Bit depth : 16 bits
  55. Compression mode : Lossy
  56. Stream size : 329 MiB (4%)
  57. Title : Диапазон
  58. Language : Russian
  59. Default : Yes
  60. Forced : Yes
  61.  
  62. Audio #2
  63. ID : 3
  64. Format : DTS
  65. Format/Info : Digital Theater Systems
  66. Mode : 16
  67. Format settings, Endianness : Big
  68. Codec ID : A_DTS
  69. Duration : 1h 42mn
  70. Bit rate mode : Constant
  71. Bit rate : 1 509 Kbps
  72. Channel(s) : 6 channels
  73. Channel positions : Front: L C R, Side: L R, LFE
  74. Sampling rate : 48.0 KHz
  75. Bit depth : 24 bits
  76. Compression mode : Lossy
  77. Stream size : 1.08 GiB (14%)
  78. Language : German
  79. Default : No
  80. Forced : No
  81.  
  82. Text
  83. ID : 4
  84. Format : UTF-8
  85. Codec ID : S_TEXT/UTF8
  86. Codec ID/Info : UTF-8 Plain Text
  87. Title : Мария Игнатова
  88. Language : Russian
  89. Default : No
  90. Forced : No
  91.  
  92. Menu
  93. 00:00:00.000 : en:00:00:00.000
  94. 00:08:13.125 : en:00:08:13.125
  95. 00:17:25.375 : en:00:17:25.375
  96. 00:27:11.042 : en:00:27:11.042
  97. 00:35:44.458 : en:00:35:44.458
  98. 00:41:59.458 : en:00:41:59.458
  99. 00:53:18.375 : en:00:53:18.375
  100. 01:04:23.708 : en:01:04:23.708
  101. 01:13:39.708 : en:01:13:39.708
  102. 01:21:58.958 : en:01:21:58.958
  103. 01:27:21.167 : en:01:27:21.167
  104. 01:37:25.208 : en:01:37:25.208
RAW Paste Data

Adblocker detected! Please consider disabling it...

We've detected AdBlock Plus or some other adblocking software preventing Pastebin.com from fully loading.

We don't have any obnoxious sound, or popup ads, we actively block these annoying types of ads!

Please add Pastebin.com to your ad blocker whitelist or disable your adblocking software.

×