daily pastebin goal
32%
SHARE
TWEET

Untitled

Secasa Nov 27th, 2017 8 Never
Not a member of Pastebin yet? Sign Up, it unlocks many cool features!
  1. Format                                   : Matroska
  2. Format version                           : Version 4 / Version 2
  3. File size                                : 6.98 GiB
  4. Duration                                 : 1h 33mn
  5. Overall bit rate                         : 10.6 Mbps
  6. Encoded date                             : UTC 2014-07-20 19:29:29
  7. Writing application                      : mkvmerge v6.8.0 ('Theme for Great Cities') 64bit built on Mar  2 2014 21:34:26
  8. Writing library                          : libebml v1.3.0 + libmatroska v1.4.1
  9.  
  10. Video
  11. ID                                       : 1
  12. Format                                   : AVC
  13. Format/Info                              : Advanced Video Codec
  14. Format profile                           : High@L4.1
  15. Format settings, CABAC                   : Yes
  16. Format settings, ReFrames                : 4 frames
  17. Codec ID                                 : V_MPEG4/ISO/AVC
  18. Duration                                 : 1h 33mn
  19. Bit rate                                 : 8 491 Kbps
  20. Width                                    : 1 440 pixels
  21. Height                                   : 1 080 pixels
  22. Display aspect ratio                     : 4:3
  23. Frame rate mode                          : Constant
  24. Frame rate                               : 23.976 fps
  25. Color space                              : YUV
  26. Chroma subsampling                       : 4:2:0
  27. Bit depth                                : 8 bits
  28. Scan type                                : Progressive
  29. Bits/(Pixel*Frame)                       : 0.228
  30. Stream size                              : 5.43 GiB (78%)
  31. Writing library                          : x264 core 142 r2431 ac76440
  32. Encoding settings                        : cabac=1 / ref=4 / deblock=1:0:0 / analyse=0x3:0x113 / me=umh / subme=8 / psy=1 / psy_rd=1.00:0.00 / mixed_ref=1 / me_range=16 / chroma_me=1 / trellis=1 / 8x8dct=1 / cqm=0 / deadzone=21,11 / fast_pskip=0 / chroma_qp_offset=-2 / threads=18 / lookahead_threads=3 / sliced_threads=0 / nr=0 / decimate=1 / interlaced=0 / bluray_compat=0 / constrained_intra=0 / bframes=3 / b_pyramid=2 / b_adapt=1 / b_bias=0 / direct=1 / weightb=1 / open_gop=0 / weightp=2 / keyint=250 / keyint_min=23 / scenecut=40 / intra_refresh=0 / rc_lookahead=40 / rc=2pass / mbtree=1 / bitrate=8491 / ratetol=1.0 / qcomp=0.60 / qpmin=0 / qpmax=69 / qpstep=4 / cplxblur=20.0 / qblur=0.5 / ip_ratio=1.40 / aq=1:1.00
  33. Language                                 : English
  34. Default                                  : Yes
  35. Forced                                   : No
  36.  
  37. Audio #1
  38. ID                                       : 2
  39. Format                                   : DTS
  40. Format/Info                              : Digital Theater Systems
  41. Mode                                     : 16
  42. Format settings, Endianness              : Big
  43. Codec ID                                 : A_DTS
  44. Duration                                 : 1h 33mn
  45. Bit rate mode                            : Constant
  46. Bit rate                                 : 1 509 Kbps
  47. Channel count                            : 2 channels
  48. Channel positions                        : Front: L R
  49. Sampling rate                            : 48.0 KHz
  50. Bit depth                                : 24 bits
  51. Compression mode                         : Lossy
  52. Stream size                              : 1 013 MiB (14%)
  53. Title                                    : DTS English
  54. Language                                 : English
  55. Default                                  : No
  56. Forced                                   : No
  57.  
  58. Audio #2
  59. ID                                       : 3
  60. Format                                   : AC-3
  61. Format/Info                              : Audio Coding 3
  62. Mode extension                           : CM (complete main)
  63. Format settings, Endianness              : Big
  64. Codec ID                                 : A_AC3
  65. Duration                                 : 1h 33mn
  66. Bit rate mode                            : Constant
  67. Bit rate                                 : 448 Kbps
  68. Channel count                            : 2 channels
  69. Channel positions                        : Front: L R
  70. Sampling rate                            : 48.0 KHz
  71. Bit depth                                : 16 bits
  72. Compression mode                         : Lossy
  73. Stream size                              : 301 MiB (4%)
  74. Title                                    : AC3 English
  75. Language                                 : English
  76. Default                                  : No
  77. Forced                                   : No
  78.  
  79. Audio #3
  80. ID                                       : 4
  81. Format                                   : AC-3
  82. Format/Info                              : Audio Coding 3
  83. Mode extension                           : CM (complete main)
  84. Format settings, Endianness              : Big
  85. Codec ID                                 : A_AC3
  86. Duration                                 : 1h 33mn
  87. Bit rate mode                            : Constant
  88. Bit rate                                 : 192 Kbps
  89. Channel count                            : 2 channels
  90. Channel positions                        : Front: L R
  91. Sampling rate                            : 48.0 KHz
  92. Bit depth                                : 16 bits
  93. Compression mode                         : Lossy
  94. Delay relative to video                  : 7s 650ms
  95. Stream size                              : 129 MiB (2%)
  96. Title                                    : AC3 Spanish
  97. Language                                 : Spanish
  98. Default                                  : Yes
  99. Forced                                   : No
  100.  
  101. Text #1
  102. ID                                       : 5
  103. Format                                   : UTF-8
  104. Codec ID                                 : S_TEXT/UTF8
  105. Codec ID/Info                            : UTF-8 Plain Text
  106. Title                                    : Forzados
  107. Language                                 : Spanish
  108. Default                                  : Yes
  109. Forced                                   : No
  110.  
  111. Text #2
  112. ID                                       : 6
  113. Format                                   : UTF-8
  114. Codec ID                                 : S_TEXT/UTF8
  115. Codec ID/Info                            : UTF-8 Plain Text
  116. Language                                 : Spanish
  117. Default                                  : No
  118. Forced                                   : No
  119.  
  120. Text #3
  121. ID                                       : 7
  122. Format                                   : UTF-8
  123. Codec ID                                 : S_TEXT/UTF8
  124. Codec ID/Info                            : UTF-8 Plain Text
  125. Language                                 : English
  126. Default                                  : No
  127. Forced                                   : No
  128.  
  129. Menu
  130. 00:00:00.000                             : en:00:00:00.000
  131. 00:11:29.898                             : en:00:11:29.898
  132. 00:27:46.832                             : en:00:27:46.832
  133. 00:37:29.456                             : en:00:37:29.456
  134. 00:49:29.800                             : en:00:49:29.800
  135. 01:03:17.502                             : en:01:03:17.502
  136. 01:11:28.284                             : en:01:11:28.284
  137. 01:22:59.057                             : en:01:22:59.057
RAW Paste Data
Top