SHARE
TWEET

Untitled

a guest Mar 29th, 2012 42 Never
Not a member of Pastebin yet? Sign Up, it unlocks many cool features!
  1. General
  2. Format                                   : MPEG-4
  3. Format profile                           : Base Media
  4. Codec ID                                 : isom
  5. File size                                : 251 MiB
  6. Duration                                 : 23mn 43s
  7. Overall bit rate                         : 1 481 Kbps
  8. Encoded date                             : UTC 2012-03-24 23:31:38
  9. Tagged date                              : UTC 2012-03-24 23:31:38
  10. Writing application                      : Lavf54.0.100
  11.  
  12. Video
  13. ID                                       : 1
  14. Format                                   : AVC
  15. Format/Info                              : Advanced Video Codec
  16. Format profile                           : High@L3.1
  17. Format settings, CABAC                   : Yes
  18. Format settings, ReFrames                : 10 frames
  19. Codec ID                                 : avc1
  20. Codec ID/Info                            : Advanced Video Coding
  21. Duration                                 : 23mn 43s
  22. Bit rate                                 : 1 322 Kbps
  23. Width                                    : 1 280 pixels
  24. Height                                   : 720 pixels
  25. Display aspect ratio                     : 16:9
  26. Frame rate mode                          : Constant
  27. Frame rate                               : 23.976 fps
  28. Color space                              : YUV
  29. Chroma subsampling                       : 4:2:0
  30. Bit depth                                : 8 bits
  31. Scan type                                : Progressive
  32. Bits/(Pixel*Frame)                       : 0.060
  33. Stream size                              : 224 MiB (89%)
  34. Writing library                          : x264 core 120 r2146 bcd41db
  35. Encoding settings                        : cabac=1 / ref=10 / deblock=1:1:1 / analyse=0x3:0x113 / me=umh / subme=8 / psy=1 / psy_rd=0.40:0.00 / mixed_ref=1 / me_range=16 / chroma_me=1 / trellis=1 / 8x8dct=1 / cqm=0 / deadzone=21,11 / fast_pskip=1 / chroma_qp_offset=-2 / threads=8 / sliced_threads=0 / nr=0 / decimate=1 / interlaced=0 / bluray_compat=0 / constrained_intra=0 / bframes=5 / b_pyramid=2 / b_adapt=2 / b_bias=0 / direct=3 / weightb=1 / open_gop=0 / weightp=2 / keyint=250 / keyint_min=23 / scenecut=40 / intra_refresh=0 / rc_lookahead=50 / rc=crf / mbtree=1 / crf=21.0 / qcomp=0.60 / qpmin=0 / qpmax=69 / qpstep=4 / ip_ratio=1.40 / aq=1:0.60
  36. Encoded date                             : UTC 2012-03-24 23:31:38
  37. Tagged date                              : UTC 2012-03-24 23:31:38
  38.  
  39. Audio
  40. ID                                       : 2
  41. Format                                   : AAC
  42. Format/Info                              : Advanced Audio Codec
  43. Format profile                           : LC
  44. Codec ID                                 : 40
  45. Duration                                 : 23mn 42s
  46. Bit rate mode                            : Constant
  47. Bit rate                                 : 154 Kbps
  48. Channel(s)                               : 2 channels
  49. Channel positions                        : Front: L R
  50. Sampling rate                            : 48.0 KHz
  51. Compression mode                         : Lossy
  52. Delay relative to video                  : -2s 2ms
  53. Stream size                              : 26.1 MiB (10%)
  54. Encoded date                             : UTC 2012-03-24 23:31:38
  55. Tagged date                              : UTC 2012-03-24 23:31:38
RAW Paste Data
We use cookies for various purposes including analytics. By continuing to use Pastebin, you agree to our use of cookies as described in the Cookies Policy. OK, I Understand
 
Top