SHARE
TWEET

Untitled

a guest Mar 13th, 2012 12 Never
Not a member of Pastebin yet? Sign Up, it unlocks many cool features!
  1. ffmpeg version N-38292-ga4c22e3 Copyright (c) 2000-2012 the FFmpeg developers
  2.   built on Feb 27 2012 14:50:39 with gcc 4.6.2
  3.   configuration: --enable-gpl --enable-version3 --disable-w32threads --enable-runtime-cpudetect --enable-avisynth --enable-bzlib --enable-frei0r --enable-libopencore-amrnb --enable-libopencore-amrwb --enable-libfreetype --enable-libgsm --enable-libmp3lame --enable-libopenjpeg --enable-librtmp --enable-libschroedinger --enable-libspeex --enable-libtheora --enable-libvo-aacenc --enable-libvo-amrwbenc --enable-libvorbis --enable-libvpx --enable-libx264 --enable-libxavs --enable-libxvid --enable-zlib
  4.   libavutil      51. 41.100 / 51. 41.100
  5.   libavcodec     54.  4.100 / 54.  4.100
  6.   libavformat    54.  1.100 / 54.  1.100
  7.   libavdevice    53.  4.100 / 53.  4.100
  8.   libavfilter     2. 62.101 /  2. 62.101
  9.   libswscale      2.  1.100 /  2.  1.100
  10.   libswresample   0.  7.100 /  0.  7.100
  11.   libpostproc    52.  0.100 / 52.  0.100
  12. [dshow @ 0217AB40] Estimating duration from bitrate, this may be inaccurate
  13. Input #0, dshow, from 'video=screen-capture-recorder:audio=SoundMAX Digital Audio':
  14.   Duration: N/A, start: 4867.106000, bitrate: 1411 kb/s
  15.     Stream #0:0: Video: rawvideo, bgr24, 1024x768, 30 tbr, 10000k tbn, 30 tbc
  16.     Stream #0:1: Audio: pcm_s16le, 44100 Hz, 2 channels, s16, 1411 kb/s
  17. Incompatible pixel format 'bgr24' for codec 'libx264', auto-selecting format 'yuv420p'
  18. [buffer @ 0250CCE0] w:1024 h:768 pixfmt:bgr24 tb:1/1000000 sar:0/1 sws_param:
  19. [scale @ 025824E0] w:1024 h:768 fmt:bgr24 -> w:512 h:384 fmt:yuv420p flags:0x4
  20. [libx264 @ 02179500] using cpu capabilities: MMX2 SSE2 SSE3 Cache64
  21. [libx264 @ 02179500] profile Constrained Baseline, level 2.1
  22. [mpegts @ 02179020] muxrate VBR, pcr every 1 pkts, sdt every 200, pat/pmt every 40 pkts
  23. Output #0, mpegts, to 'udp://192.168.5.215:48550':
  24.   Metadata:
  25.     encoder         : Lavf54.1.100
  26.     Stream #0:0: Video: h264, yuv420p, 512x384, q=-1--1, 90k tbn, 10 tbc
  27.     Stream #0:1: Audio: mp2, 22050 Hz, 2 channels, s16, 32 kb/s
  28. Stream mapping:
  29.   Stream #0:0 -> #0:0 (rawvideo -> libx264)
  30.   Stream #0:1 -> #0:1 (pcm_s16le -> mp2)
  31. Press [q] to stop, [?] for help
  32. frame=    8 fps=  0 q=16.0 size=      75kB time=00:00:00.40 bitrate=1534.1kbits/s dup=0 drop=4  
  33. frame=   13 fps= 13 q=5.0 size=      95kB time=00:00:00.90 bitrate= 860.6kbits/s dup=0 drop=8  
  34. frame=   18 fps= 12 q=0.0 size=     158kB time=00:00:01.40 bitrate= 922.8kbits/s dup=0 drop=12  
  35. frame=   24 fps= 12 q=1.0 size=     201kB time=00:00:01.93 bitrate= 850.4kbits/s dup=0 drop=16  
  36. frame=   29 fps= 11 q=5.0 size=     206kB time=00:00:02.40 bitrate= 700.9kbits/s dup=0 drop=21  
  37. frame=   34 fps= 11 q=18.0 size=     207kB time=00:00:02.92 bitrate= 579.9kbits/s dup=0 drop=25  
  38. frame=   40 fps= 11 q=17.0 size=     224kB time=00:00:03.44 bitrate= 531.7kbits/s dup=0 drop=29  
  39. frame=   45 fps= 11 q=17.0 size=     228kB time=00:00:03.91 bitrate= 476.7kbits/s dup=0 drop=34  
  40. frame=   50 fps= 11 q=17.0 size=     232kB time=00:00:04.44 bitrate= 427.7kbits/s dup=0 drop=39  
  41. frame=   55 fps= 11 q=17.0 size=     233kB time=00:00:04.91 bitrate= 389.2kbits/s dup=0 drop=43  
  42. frame=   61 fps= 11 q=0.0 size=     237kB time=00:00:05.43 bitrate= 357.6kbits/s dup=0 drop=46  
  43. frame=   66 fps= 11 q=4.0 size=     264kB time=00:00:05.90 bitrate= 366.3kbits/s dup=0 drop=50  
  44. frame=   71 fps= 11 q=5.0 size=     269kB time=00:00:06.42 bitrate= 342.6kbits/s dup=0 drop=54  
  45. frame=   76 fps= 10 q=5.0 size=     274kB time=00:00:06.94 bitrate= 322.5kbits/s dup=0 drop=59  
  46. frame=   81 fps= 10 q=5.0 size=     277kB time=00:00:07.41 bitrate= 306.3kbits/s dup=0 drop=64  
  47. frame=   86 fps= 10 q=5.0 size=     283kB time=00:00:08.20 bitrate= 282.3kbits/s dup=0 drop=67  
  48. frame=   91 fps= 10 q=5.0 size=     284kB time=00:00:08.70 bitrate= 267.4kbits/s dup=0 drop=71  
  49. frame=   96 fps= 10 q=7.0 size=     289kB time=00:00:09.20 bitrate= 257.5kbits/s dup=0 drop=75  
  50. frame=  101 fps= 10 q=7.0 size=     290kB time=00:00:09.40 bitrate= 252.2kbits/s dup=0 drop=80  
  51. frame=  106 fps= 10 q=2.0 size=     298kB time=00:00:10.20 bitrate= 239.2kbits/s dup=0 drop=84  
  52. frame=  112 fps= 10 q=7.0 size=     305kB time=00:00:10.80 bitrate= 231.3kbits/s dup=0 drop=88  
  53. frame=  117 fps= 10 q=22.0 size=     309kB time=00:00:11.30 bitrate= 224.3kbits/s dup=0 drop=91  
  54. frame=  122 fps= 10 q=19.0 size=     408kB time=00:00:11.80 bitrate= 283.3kbits/s dup=0 drop=95  
  55. frame=  127 fps= 10 q=10.0 size=     451kB time=00:00:12.30 bitrate= 300.6kbits/s dup=0 drop=100  
  56. frame=  132 fps= 10 q=17.0 size=     462kB time=00:00:12.80 bitrate= 295.7kbits/s dup=0 drop=104  
  57. frame=  137 fps= 10 q=18.0 size=     481kB time=00:00:13.30 bitrate= 296.3kbits/s dup=0 drop=108  
  58. frame=  142 fps= 10 q=18.0 size=     482kB time=00:00:13.80 bitrate= 286.1kbits/s dup=0 drop=113  
  59. frame=  148 fps= 10 q=4.0 size=     528kB time=00:00:14.40 bitrate= 300.3kbits/s dup=0 drop=116  
  60. frame=  153 fps= 10 q=0.0 size=     534kB time=00:00:14.90 bitrate= 293.5kbits/s dup=0 drop=120  
  61. frame=  158 fps= 10 q=5.0 size=     539kB time=00:00:15.40 bitrate= 286.7kbits/s dup=0 drop=124  
  62. frame=  163 fps= 10 q=5.0 size=     544kB time=00:00:15.90 bitrate= 280.1kbits/s dup=0 drop=129  
  63. frame=  168 fps= 10 q=5.0 size=     547kB time=00:00:16.40 bitrate= 273.5kbits/s dup=0 drop=133  
  64. frame=  173 fps= 10 q=1.0 size=     549kB time=00:00:16.90 bitrate= 265.9kbits/s dup=0 drop=137  
  65. frame=  179 fps= 10 q=5.0 size=     554kB time=00:00:17.44 bitrate= 260.0kbits/s dup=0 drop=140  
  66. frame=  184 fps= 10 q=4.0 size=     559kB time=00:00:17.92 bitrate= 255.5kbits/s dup=0 drop=145  
  67. frame=  190 fps= 10 q=4.0 size=     563kB time=00:00:18.44 bitrate= 250.0kbits/s dup=0 drop=149  
  68. frame=  195 fps= 10 q=9.0 size=     564kB time=00:00:18.91 bitrate= 244.1kbits/s dup=0 drop=153  
  69. frame=  200 fps= 10 q=14.0 size=     571kB time=00:00:19.43 bitrate= 240.5kbits/s dup=0 drop=157  
  70. frame=  205 fps= 10 q=19.0 size=     593kB time=00:00:19.90 bitrate= 244.2kbits/s dup=0 drop=161  
  71. frame=  211 fps= 10 q=7.0 size=     637kB time=00:00:20.42 bitrate= 255.6kbits/s dup=0 drop=165  
  72. frame=  215 fps= 10 q=4.0 size=     677kB time=00:00:20.95 bitrate= 264.8kbits/s dup=0 drop=170  
  73. frame=  220 fps= 10 q=4.0 size=     706kB time=00:00:21.42 bitrate= 269.9kbits/s dup=0 drop=174  
  74. frame=  226 fps= 10 q=24.0 size=     710kB time=00:00:21.94 bitrate= 264.9kbits/s dup=0 drop=177  
  75. frame=  231 fps= 10 q=13.0 size=     756kB time=00:00:22.41 bitrate= 276.5kbits/s dup=0 drop=181  
  76. frame=  236 fps= 10 q=4.0 size=     807kB time=00:00:22.93 bitrate= 288.3kbits/s dup=0 drop=185  
  77. frame=  241 fps= 10 q=21.0 size=     859kB time=00:00:23.40 bitrate= 300.7kbits/s dup=0 drop=189  
  78. frame=  246 fps= 10 q=9.0 size=     896kB time=00:00:23.92 bitrate= 306.6kbits/s dup=0 drop=193  
  79. frame=  251 fps= 10 q=2.0 size=     937kB time=00:00:24.45 bitrate= 314.0kbits/s dup=0 drop=197  
  80. frame=  256 fps= 10 q=17.0 size=    1008kB time=00:00:24.92 bitrate= 331.4kbits/s dup=0 drop=202  
  81. real-time buffer 155% full! frame dropped!
  82. frame=  261 fps= 10 q=7.0 size=    1117kB time=00:00:25.44 bitrate= 359.7kbits/s dup=0 drop=206  
  83. frame=  266 fps= 10 q=19.0 size=    1135kB time=00:00:26.20 bitrate= 354.8kbits/s dup=0 drop=208  
  84. frame=  271 fps= 10 q=19.0 size=    1186kB time=00:00:26.70 bitrate= 363.9kbits/s dup=0 drop=210  
  85. frame=  276 fps= 10 q=19.0 size=    1203kB time=00:00:26.90 bitrate= 366.3kbits/s dup=0 drop=213  
  86. frame=  281 fps= 10 q=17.0 size=    1275kB time=00:00:27.70 bitrate= 377.1kbits/s dup=0 drop=215  
  87. frame=  286 fps= 10 q=18.0 size=    1317kB time=00:00:28.20 bitrate= 382.7kbits/s dup=0 drop=218  
  88. frame=  291 fps= 10 q=19.0 size=    1364kB time=00:00:28.70 bitrate= 389.3kbits/s dup=0 drop=220  
  89. frame=  296 fps= 10 q=18.0 size=    1407kB time=00:00:29.20 bitrate= 394.7kbits/s dup=0 drop=222  
  90. frame=  301 fps= 10 q=22.0 size=    1453kB time=00:00:29.70 bitrate= 400.8kbits/s dup=0 drop=224  
  91. frame=  307 fps= 10 q=18.0 size=    1521kB time=00:00:30.30 bitrate= 411.3kbits/s dup=0 drop=226  
  92. frame=  312 fps= 10 q=17.0 size=    1557kB time=00:00:30.80 bitrate= 414.2kbits/s dup=0 drop=228  
  93. frame=  317 fps= 10 q=18.0 size=    1600kB time=00:00:31.30 bitrate= 418.7kbits/s dup=0 drop=231  
  94. frame=  323 fps= 10 q=18.0 size=    1648kB time=00:00:31.90 bitrate= 423.3kbits/s dup=0 drop=233  
  95. frame=  328 fps= 10 q=21.0 size=    1696kB time=00:00:32.40 bitrate= 428.7kbits/s dup=0 drop=235  
  96. frame=  333 fps= 10 q=20.0 size=    1748kB time=00:00:32.90 bitrate= 435.2kbits/s dup=0 drop=238  
  97. frame=  338 fps= 10 q=18.0 size=    1791kB time=00:00:33.40 bitrate= 439.3kbits/s dup=0 drop=240  
  98. frame=  344 fps= 10 q=17.0 size=    1825kB time=00:00:33.90 bitrate= 441.0kbits/s dup=0 drop=242  
  99. frame=  349 fps= 10 q=16.0 size=    1858kB time=00:00:34.42 bitrate= 442.1kbits/s dup=0 drop=244  
  100. frame=  354 fps= 10 q=18.0 size=    1889kB time=00:00:34.95 bitrate= 442.8kbits/s dup=0 drop=246  
  101. frame=  359 fps= 10 q=18.0 size=    1921kB time=00:00:35.42 bitrate= 444.3kbits/s dup=0 drop=248  
  102. frame=  364 fps= 10 q=22.0 size=    1951kB time=00:00:35.94 bitrate= 444.7kbits/s dup=0 drop=250  
  103. frame=  370 fps= 10 q=10.0 size=    2004kB time=00:00:36.41 bitrate= 450.8kbits/s dup=0 drop=252  
  104. frame=  376 fps= 10 q=10.0 size=    2072kB time=00:00:36.93 bitrate= 459.6kbits/s dup=0 drop=255  
  105. frame=  381 fps= 10 q=0.0 size=    2109kB time=00:00:37.40 bitrate= 461.9kbits/s dup=0 drop=258  
  106. frame=  386 fps= 10 q=0.0 size=    2169kB time=00:00:37.92 bitrate= 468.5kbits/s dup=0 drop=261  
  107. frame=  391 fps= 10 q=0.0 size=    2180kB time=00:00:38.40 bitrate= 465.1kbits/s dup=0 drop=264  
  108. frame=  396 fps= 10 q=2.0 size=    2193kB time=00:00:38.92 bitrate= 461.5kbits/s dup=0 drop=267  
  109. frame=  401 fps= 10 q=6.0 size=    2201kB time=00:00:39.44 bitrate= 457.0kbits/s dup=0 drop=270  
  110. frame=  406 fps= 10 q=4.0 size=    2206kB time=00:00:39.91 bitrate= 452.8kbits/s dup=0 drop=273  
  111. frame=  411 fps= 10 q=21.0 size=    2239kB time=00:00:40.70 bitrate= 450.7kbits/s dup=0 drop=274  
  112. frame=  416 fps= 10 q=20.0 size=    2282kB time=00:00:41.20 bitrate= 453.7kbits/s dup=0 drop=276  
  113. frame=  421 fps= 10 q=21.0 size=    2324kB time=00:00:41.70 bitrate= 456.6kbits/s dup=0 drop=279  
  114. frame=  426 fps= 10 q=20.0 size=    2366kB time=00:00:42.20 bitrate= 459.3kbits/s dup=0 drop=281  
  115. frame=  431 fps= 10 q=21.0 size=    2375kB time=00:00:42.42 bitrate= 458.7kbits/s dup=0 drop=284  
  116. frame=  436 fps= 10 q=19.0 size=    2445kB time=00:00:43.20 bitrate= 463.6kbits/s dup=0 drop=286  
  117. frame=  441 fps= 10 q=19.0 size=    2458kB time=00:00:43.41 bitrate= 463.9kbits/s dup=0 drop=289  
  118. frame=  446 fps= 10 q=20.0 size=    2503kB time=00:00:44.20 bitrate= 464.0kbits/s dup=0 drop=291  
  119. frame=  452 fps= 10 q=20.0 size=    2543kB time=00:00:44.80 bitrate= 465.0kbits/s dup=0 drop=294  
  120. frame=  457 fps= 10 q=23.0 size=    2575kB time=00:00:45.30 bitrate= 465.6kbits/s dup=0 drop=297  
  121. frame=  457 fps= 10 q=-1.0 Lsize=    2630kB time=00:00:45.45 bitrate= 474.0kbits/s dup=0 drop=297  
  122.  
  123. video:2203kB audio:178kB global headers:0kB muxing overhead 10.471742%
  124. [dshow @ 0217AB40] real-time buffer 155% full! frame dropped!
  125. [libx264 @ 02179500] frame I:2     Avg QP:13.50  size: 85589
  126. [libx264 @ 02179500] frame P:455   Avg QP:11.90  size:  4582
  127. [libx264 @ 02179500] mb I  I16..4: 100.0%  0.0%  0.0%
  128. [libx264 @ 02179500] mb P  I16..4:  3.0%  0.0%  0.0%  P16..4: 18.2%  0.0%  0.0%  0.0%  0.0%    skip:78.8%
  129. [libx264 @ 02179500] coded y,uvDC,uvAC intra: 54.4% 44.1% 34.5% inter: 11.8% 7.6% 4.4%
  130. [libx264 @ 02179500] i16 v,h,dc,p: 40% 51%  6%  3%
  131. [libx264 @ 02179500] i8c dc,h,v,p: 38% 42% 18%  2%
  132. [libx264 @ 02179500] kb/s:394.92
  133. [dshow @ 0217AB40] real-time buffer 155% full! frame dropped!
  134.     Last message repeated 6 times
  135. Received signal 2: terminating.
RAW Paste Data
We use cookies for various purposes including analytics. By continuing to use Pastebin, you agree to our use of cookies as described in the Cookies Policy. OK, I Understand
 
Top