Guest User

The.Killer.1989.1080p.BluRay.CUSTOM.Plus.Criterion.Comm.DD.5.1.x264-MaG

a guest
May 24th, 2019
144
Never
Not a member of Pastebin yet? Sign Up, it unlocks many cool features!
  1. General
  2. Unique ID                                : 211100223171573000284285390076950406206 (0x9ED06C924BB699D8BA1DD9C716FCE43E)
  3. Complete name                            : The.Killer.1989.1080p.BluRay.CUSTOM.Plus.Criterion.Comm.DD.5.1.x264-MaG.mkv
  4. Format                                   : Matroska
  5. Format version                           : Version 4
  6. File size                                : 7.95 GiB
  7. Duration                                 : 1 h 51 min
  8. Overall bit rate                         : 10.2 Mb/s
  9. Encoded date                             : UTC 2017-09-28 14:40:32
  10. Writing application                      : mkvmerge v9.5.0 ('Quiet Fire') 64bit
  11. Writing library                          : libebml v1.3.4 + libmatroska v1.4.5
  12.  
  13. Video
  14. ID                                       : 1
  15. Format                                   : AVC
  16. Format/Info                              : Advanced Video Codec
  17. Format profile                           : High@L4.1
  18. Format settings                          : CABAC / 4 Ref Frames
  19. Format settings, CABAC                   : Yes
  20. Format settings, Reference frames        : 4 frames
  21. Codec ID                                 : V_MPEG4/ISO/AVC
  22. Duration                                 : 1 h 51 min
  23. Bit rate                                 : 9 219 kb/s
  24. Width                                    : 1 920 pixels
  25. Height                                   : 1 040 pixels
  26. Display aspect ratio                     : 1.85:1
  27. Frame rate mode                          : Constant
  28. Frame rate                               : 23.976 (24000/1001) FPS
  29. Color space                              : YUV
  30. Chroma subsampling                       : 4:2:0
  31. Bit depth                                : 8 bits
  32. Scan type                                : Progressive
  33. Bits/(Pixel*Frame)                       : 0.193
  34. Stream size                              : 7.15 GiB (90%)
  35. Writing library                          : x264 core 146 r2538 121396c
  36. Encoding settings                        : cabac=1 / ref=4 / deblock=1:0:0 / analyse=0x3:0x133 / me=umh / subme=7 / psy=1 / psy_rd=1.00:0.00 / mixed_ref=1 / me_range=16 / chroma_me=1 / trellis=1 / 8x8dct=1 / cqm=0 / deadzone=21,11 / fast_pskip=0 / chroma_qp_offset=-2 / threads=12 / lookahead_threads=2 / sliced_threads=0 / nr=0 / decimate=1 / interlaced=0 / bluray_compat=0 / constrained_intra=0 / bframes=3 / b_pyramid=2 / b_adapt=2 / b_bias=0 / direct=3 / weightb=1 / open_gop=0 / weightp=2 / keyint=240 / keyint_min=23 / scenecut=40 / intra_refresh=0 / rc_lookahead=50 / rc=2pass / mbtree=1 / bitrate=9219 / ratetol=1.0 / qcomp=0.60 / qpmin=0 / qpmax=69 / qpstep=4 / cplxblur=20.0 / qblur=0.5 / ip_ratio=1.40 / aq=1:1.00
  37. Language                                 : English
  38. Default                                  : Yes
  39. Forced                                   : No
  40.  
  41. Audio #1
  42. ID                                       : 2
  43. Format                                   : AC-3
  44. Format/Info                              : Audio Coding 3
  45. Commercial name                          : Dolby Digital
  46. Codec ID                                 : A_AC3
  47. Duration                                 : 1 h 50 min
  48. Bit rate mode                            : Constant
  49. Bit rate                                 : 640 kb/s
  50. Channel(s)                               : 6 channels
  51. Channel layout                           : L R C LFE Ls Rs
  52. Sampling rate                            : 48.0 kHz
  53. Frame rate                               : 31.250 FPS (1536 SPF)
  54. Bit depth                                : 16 bits
  55. Compression mode                         : Lossy
  56. Stream size                              : 508 MiB (6%)
  57. Title                                    : Cantonese DD 5.1 Audio
  58. Language                                 : Chinese
  59. Service kind                             : Complete Main
  60. Default                                  : Yes
  61. Forced                                   : No
  62.  
  63. Audio #2
  64. ID                                       : 3
  65. Format                                   : AC-3
  66. Format/Info                              : Audio Coding 3
  67. Commercial name                          : Dolby Digital
  68. Codec ID                                 : A_AC3
  69. Duration                                 : 1 h 51 min
  70. Bit rate mode                            : Constant
  71. Bit rate                                 : 192 kb/s
  72. Channel(s)                               : 2 channels
  73. Channel layout                           : L R
  74. Sampling rate                            : 48.0 kHz
  75. Frame rate                               : 31.250 FPS (1536 SPF)
  76. Bit depth                                : 16 bits
  77. Compression mode                         : Lossy
  78. Stream size                              : 152 MiB (2%)
  79. Title                                    : Cantonese DD 2.0 Audio
  80. Language                                 : Chinese
  81. Service kind                             : Complete Main
  82. Default                                  : No
  83. Forced                                   : No
  84.  
  85. Audio #3
  86. ID                                       : 4
  87. Format                                   : AC-3
  88. Format/Info                              : Audio Coding 3
  89. Commercial name                          : Dolby Digital
  90. Codec ID                                 : A_AC3
  91. Duration                                 : 1 h 51 min
  92. Bit rate mode                            : Constant
  93. Bit rate                                 : 192 kb/s
  94. Channel(s)                               : 1 channel
  95. Channel layout                           : C
  96. Sampling rate                            : 48.0 kHz
  97. Frame rate                               : 31.250 FPS (1536 SPF)
  98. Bit depth                                : 16 bits
  99. Compression mode                         : Lossy
  100. Delay relative to video                  : 2 s 0 ms
  101. Stream size                              : 152 MiB (2%)
  102. Title                                    : Commentary with Director John Woo and Producer Terence Chang
  103. Language                                 : English
  104. Service kind                             : Complete Main
  105. Default                                  : No
  106. Forced                                   : No
  107.  
  108. Text
  109. ID                                       : 5
  110. Format                                   : UTF-8
  111. Codec ID                                 : S_TEXT/UTF8
  112. Codec ID/Info                            : UTF-8 Plain Text
  113. Duration                                 : 1 h 46 min
  114. Bit rate                                 : 28 b/s
  115. Count of elements                        : 931
  116. Stream size                              : 22.0 KiB (0%)
  117. Language                                 : English
  118. Default                                  : Yes
  119. Forced                                   : No
  120.  
  121. Menu
  122. 00:00:00.000                             : en:00:00:00.000
  123. 00:08:22.836                             : en:00:08:22.836
  124. 00:13:59.130                             : en:00:13:59.130
  125. 00:19:23.412                             : en:00:19:23.412
  126. 00:24:26.799                             : en:00:24:26.799
  127. 00:29:50.122                             : en:00:29:50.122
  128. 00:36:30.438                             : en:00:36:30.438
  129. 00:42:50.818                             : en:00:42:50.818
  130. 00:48:27.947                             : en:00:48:27.947
  131. 00:55:34.164                             : en:00:55:34.164
  132. 01:00:58.989                             : en:01:00:58.989
  133. 01:05:14.786                             : en:01:05:14.786
  134. 01:11:20.610                             : en:01:11:20.610
  135. 01:17:22.429                             : en:01:17:22.429
  136. 01:23:14.489                             : en:01:23:14.489
  137. 01:32:03.601                             : en:01:32:03.601
  138. 01:34:13.648                             : en:01:34:13.648
  139. 01:37:10.366                             : en:01:37:10.366
  140. 01:42:45.534                             : en:01:42:45.534
  141. 01:47:14.094                             : en:01:47:14.094
RAW Paste Data