Guest User

Untitled

a guest
Dec 17th, 2016
153
Never
Not a member of Pastebin yet? Sign Up, it unlocks many cool features!
  1. [me@pc ~]$ ffmpeg -i adj.ogv -c copy adj.mp4
  2. ffmpeg version N-81729-g7d17d31 Copyright (c) 2000-2016 the FFmpeg developers
  3. built with gcc 6.1.1 (GCC) 20160621 (Red Hat 6.1.1-3)
  4. configuration:
  5. libavutil 55. 30.100 / 55. 30.100
  6. libavcodec 57. 57.101 / 57. 57.101
  7. libavformat 57. 50.100 / 57. 50.100
  8. libavdevice 57. 0.102 / 57. 0.102
  9. libavfilter 6. 62.100 / 6. 62.100
  10. libswscale 4. 1.100 / 4. 1.100
  11. libswresample 2. 1.100 / 2. 1.100
  12. [ogg @ 0x3c8c3e0] Broken file, keyframe not correctly marked.
  13. Input #0, ogg, from 'adj.ogv':
  14. Duration: 00:07:04.73, start: 0.000000, bitrate: 640 kb/s
  15. Stream #0:0: Data: none
  16. Stream #0:1: Video: theora, yuv420p, 1920x1056 [SAR 1:1 DAR 20:11], 15 tbr, 15 tbn, 15 tbc
  17. Metadata:
  18. RECORDMYDESKTOP : 0.3.8.1
  19. Stream #0:2: Audio: vorbis, 22050 Hz, stereo, fltp, 171 kb/s
  20. [mp4 @ 0x3f06180] Could not find tag for codec theora in stream #0, codec not currently supported in container
  21. Output #0, mp4, to 'adj.mp4':
  22. Metadata:
  23. encoder : Lavf57.50.100
  24. Stream #0:0: Video: theora, yuv420p, 1920x1056 [SAR 1:1 DAR 20:11], q=2-31, 15 tbr, 15 tbn, 15 tbc
  25. Metadata:
  26. RECORDMYDESKTOP : 0.3.8.1
  27. Stream #0:1: Audio: vorbis ([221][0][0][0] / 0x00DD), 22050 Hz, stereo, 171 kb/s
  28. Stream mapping:
  29. Stream #0:1 -> #0:0 (copy)
  30. Stream #0:2 -> #0:1 (copy)
  31. Could not write header for output file #0 (incorrect codec parameters ?): Invalid argument
RAW Paste Data

Adblocker detected! Please consider disabling it...

We've detected AdBlock Plus or some other adblocking software preventing Pastebin.com from fully loading.

We don't have any obnoxious sound, or popup ads, we actively block these annoying types of ads!

Please add Pastebin.com to your ad blocker whitelist or disable your adblocking software.

×