SHARE
TWEET

Bandicam MP4

a guest Dec 7th, 2015 318 Never
Not a member of Pastebin yet? Sign Up, it unlocks many cool features!
  1. General
  2. Complete name : C:\Users\Vladan\Documents\Bandicam\bandicam 2015-12-07 19-07-22-602.mp4
  3. Format : MPEG-4
  4. Format profile : Base Media
  5. Codec ID : isom (mp41)
  6. File size : 529 MiB
  7. Duration : 23mn 54s
  8. Overall bit rate mode : Variable
  9. Overall bit rate : 3 094 Kbps
  10. Encoded date : UTC 2015-12-07 18:07:22
  11. Tagged date : UTC 2015-12-07 18:07:22
  12. Writing application : BandiMp4Muxer 1.0
  13.  
  14. Video
  15. ID : 1
  16. Format : AVC
  17. Format/Info : Advanced Video Codec
  18. Format profile : Baseline@L3.1
  19. Format settings, CABAC : No
  20. Format settings, ReFrames : 1 frame
  21. Codec ID : avc1
  22. Codec ID/Info : Advanced Video Coding
  23. Duration : 23mn 54s
  24. Bit rate : 2 898 Kbps
  25. Width : 1 152 pixels
  26. Height : 720 pixels
  27. Display aspect ratio : 16:10
  28. Frame rate mode : Variable
  29. Frame rate : 23.458 fps
  30. Minimum frame rate : 0.461 fps
  31. Maximum frame rate : 24.000 fps
  32. Color space : YUV
  33. Chroma subsampling : 4:2:0
  34. Bit depth : 8 bits
  35. Scan type : Progressive
  36. Bits/(Pixel*Frame) : 0.149
  37. Stream size : 496 MiB (94%)
  38. Language : English
  39. Encoded date : UTC 2015-12-07 18:07:22
  40. Tagged date : UTC 2015-12-07 18:07:22
  41.  
  42. Audio
  43. ID : 2
  44. Format : AAC
  45. Format/Info : Advanced Audio Codec
  46. Format profile : LC
  47. Codec ID : 40
  48. Duration : 23mn 46s
  49. Duration_LastFrame : -21ms
  50. Bit rate mode : Variable
  51. Bit rate : 192 Kbps
  52. Maximum bit rate : 300 Kbps
  53. Channel(s) : 2 channels
  54. Channel positions : Front: L R
  55. Sampling rate : 48.0 KHz
  56. Frame rate : 46.875 fps (1024 spf)
  57. Compression mode : Lossy
  58. Stream size : 32.8 MiB (6%)
  59. Language : English
  60. Encoded date : UTC 2015-12-07 18:07:22
  61. Tagged date : UTC 2015-12-07 18:07:22
RAW Paste Data
We use cookies for various purposes including analytics. By continuing to use Pastebin, you agree to our use of cookies as described in the Cookies Policy. OK, I Understand
Top