SHARE
TWEET

The Pool BluRay 720p

dirtyharrys May 19th, 2019 66 Never
Not a member of Pastebin yet? Sign Up, it unlocks many cool features!
  1. General
  2. Unique ID                   : 51768520354994814908109413569639544226 (0x26F2411D44607E2152C160556168F5A2)
  3. Complete name               : E:\QlJSVGhlUG9vbA.mkv
  4. Format                      : Matroska
  5. Format version              : Version 4
  6. File size                   : 1.23 GiB
  7. Duration                    : 1 h 30 min
  8. Overall bit rate            : 1 948 kb/s
  9. Movie name                  : The Pool BR-RIP / The Pool BR-RIP
  10. Encoded date                : UTC 2019-05-19 07:48:43
  11. Writing application         : mkvmerge v30.1.0 ('Forever And More') 32-bit
  12. Writing library             : libebml v1.3.6 + libmatroska v1.4.9
  13. Copyright                   : Movies HDs 2019
  14. ARTIST                      : HarshLearner
  15.  
  16. Video
  17. ID                          : 1
  18. Format                      : AVC
  19. Format/Info                 : Advanced Video Codec
  20. Format profile              : High@L4.1
  21. Format settings             : CABAC / 4 Ref Frames
  22. Format settings, CABAC      : Yes
  23. Format settings, ReFrames   : 4 frames
  24. Codec ID                    : V_MPEG4/ISO/AVC
  25. Duration                    : 1 h 30 min
  26. Bit rate                    : 1 500 kb/s
  27. Width                       : 1 280 pixels
  28. Height                      : 720 pixels
  29. Display aspect ratio        : 16:9
  30. Frame rate mode             : Constant
  31. Frame rate                  : 24.000 FPS
  32. Color space                 : YUV
  33. Chroma subsampling          : 4:2:0
  34. Bit depth                   : 8 bits
  35. Scan type                   : Progressive
  36. Bits/(Pixel*Frame)          : 0.068
  37. Stream size                 : 970 MiB (77%)
  38. Title                       : The Pool
  39. Writing library             : x264 core 152 r2851M ba24899
  40. Default                     : Yes
  41. Forced                      : No
  42.  
  43. Audio
  44. ID                          : 2
  45. Format                      : AC-3
  46. Format/Info                 : Audio Coding 3
  47. Commercial name             : Dolby Digital
  48. Codec ID                    : A_AC3
  49. Duration                    : 1 h 30 min
  50. Bit rate mode               : Constant
  51. Bit rate                    : 448 kb/s
  52. Channel(s)                  : 6 channels
  53. Channel layout              : L R C LFE Ls Rs
  54. Sampling rate               : 48.0 kHz
  55. Frame rate                  : 31.250 FPS (1536 SPF)
  56. Bit depth                   : 16 bits
  57. Compression mode            : Lossy
  58. Stream size                 : 290 MiB (23%)
  59. Language                    : English
  60. Service kind                : Complete Main
  61. Default                     : Yes
  62. Forced                      : No
  63.  
  64. Text #1
  65. ID                          : 3
  66. Format                      : UTF-8
  67. Codec ID                    : S_TEXT/UTF8
  68. Codec ID/Info               : UTF-8 Plain Text
  69. Duration                    : 1 h 22 min
  70. Bit rate                    : 11 b/s
  71. Count of elements           : 471
  72. Stream size                 : 7.14 KiB (0%)
  73. Language                    : English
  74. Default                     : No
  75. Forced                      : No
  76.  
  77. Text #2
  78. ID                          : 4
  79. Format                      : UTF-8
  80. Codec ID                    : S_TEXT/UTF8
  81. Codec ID/Info               : UTF-8 Plain Text
  82. Duration                    : 1 h 24 min
  83. Bit rate                    : 13 b/s
  84. Count of elements           : 478
  85. Stream size                 : 8.22 KiB (0%)
  86. Language                    : Spanish
  87. Default                     : Yes
  88. Forced                      : Yes
  89.  
  90. Menu
  91. 00:00:00.000                : :Chapter 01
  92. 00:05:06.875                : :Chapter 02
  93. 00:09:07.458                : :Chapter 03
  94. 00:19:05.416                : :Chapter 04
  95. 00:26:19.041                : :Chapter 05
  96. 00:34:19.791                : :Chapter 06
  97. 00:39:20.583                : :Chapter 07
  98. 00:43:28.041                : :Chapter 08
  99. 00:46:48.041                : :Chapter 09
  100. 00:54:01.791                : :Chapter 10
  101. 00:57:45.166                : :Chapter 11
  102. 01:00:44.958                : :Chapter 12
  103. 01:05:27.958                : :Chapter 13
  104. 01:10:49.916                : :Chapter 14
  105. 01:19:36.458                : :Chapter 15
  106. 01:23:23.041                : :Chapter 16
RAW Paste Data
We use cookies for various purposes including analytics. By continuing to use Pastebin, you agree to our use of cookies as described in the Cookies Policy. OK, I Understand
 
Top