SHARE
TWEET

DnB mix vol 66 - Counting Down The Days

a guest Jun 21st, 2016 181 Never
Not a member of Pastebin yet? Sign Up, it unlocks many cool features!
  1. PERFORMER "DJ Mighty ;)"
  2. TITLE "DnB mix vol 66 - Counting Down The Days"
  3. FILE "mix66.mp3" MP3
  4.   TRACK 01 AUDIO
  5.     TITLE "Never"
  6.     PERFORMER "Aved"
  7.     FLAGS DCP
  8.     INDEX 01 00:00:00
  9.   TRACK 02 AUDIO
  10.     TITLE "No More"
  11.     PERFORMER "T & Sugah Feat. Lexurus"
  12.     FLAGS DCP
  13.     INDEX 01 04:25:01
  14.   TRACK 03 AUDIO
  15.     TITLE "The Rain Will Fall (Feat. LSB)"
  16.     PERFORMER "Etherwood"
  17.     FLAGS DCP
  18.     INDEX 01 08:46:01
  19.   TRACK 04 AUDIO
  20.     TITLE "Transference"
  21.     PERFORMER "Technimatic"
  22.     FLAGS DCP
  23.     INDEX 01 11:42:01
  24.   TRACK 05 AUDIO
  25.     TITLE "Someone (Feat. Katkin Willow)"
  26.     PERFORMER "Phaction"
  27.     FLAGS DCP
  28.     INDEX 01 15:21:01
  29.   TRACK 06 AUDIO
  30.     TITLE "Playing With Fire Feat. Nuala"
  31.     PERFORMER "Drifta"
  32.     FLAGS DCP
  33.     INDEX 01 20:01:01
  34.   TRACK 07 AUDIO
  35.     TITLE "Get to Know (Feat. Riya)"
  36.     PERFORMER "Villem & McLeod"
  37.     FLAGS DCP
  38.     INDEX 01 23:27:01
  39.   TRACK 08 AUDIO
  40.     TITLE "Only You (Twisted Elements Remix)"
  41.     PERFORMER "Greenspoon"
  42.     FLAGS DCP
  43.     INDEX 01 26:23:01
  44.   TRACK 09 AUDIO
  45.     TITLE "It Means Nothing"
  46.     PERFORMER "Phase"
  47.     FLAGS DCP
  48.     INDEX 01 30:46:01
  49.   TRACK 10 AUDIO
  50.     TITLE "Stay (Feat. Charlotte Haining)"
  51.     PERFORMER "Monrroe"
  52.     FLAGS DCP
  53.     INDEX 01 34:25:01
  54.   TRACK 11 AUDIO
  55.     TITLE "Seis (Bone Bootleg)"
  56.     PERFORMER "Mick Pedaja"
  57.     FLAGS DCP
  58.     INDEX 01 39:11:01
  59.   TRACK 12 AUDIO
  60.     TITLE "Love For You"
  61.     PERFORMER "Actraiser, Tremah"
  62.     FLAGS DCP
  63.     INDEX 01 43:12:01
  64.   TRACK 13 AUDIO
  65.     TITLE "Tell Me True"
  66.     PERFORMER "Logistics"
  67.     FLAGS DCP
  68.     INDEX 01 47:03:01
  69.   TRACK 14 AUDIO
  70.     TITLE "Sunrise (Feat. Ella)"
  71.     PERFORMER "Dualistic & Subsequent"
  72.     FLAGS DCP
  73.     INDEX 01 50:42:01
  74.   TRACK 15 AUDIO
  75.     TITLE "I Didn't Know"
  76.     PERFORMER "Utile"
  77.     FLAGS DCP
  78.     INDEX 01 54:12:01
  79.   TRACK 16 AUDIO
  80.     TITLE "Cold Light of Day (Feat. Sherry Davis)"
  81.     PERFORMER "Logistics"
  82.     FLAGS DCP
  83.     INDEX 01 57:28:01
  84.   TRACK 17 AUDIO
  85.     TITLE "Whisper To Me (Feat. Sammie Bella)"
  86.     PERFORMER "Pola & Bryson"
  87.     FLAGS DCP
  88.     INDEX 01 61:47:01
  89.   TRACK 18 AUDIO
  90.     TITLE "Human Traffic"
  91.     PERFORMER "Silence Groove"
  92.     FLAGS DCP
  93.     INDEX 01 65:53:01
  94.   TRACK 19 AUDIO
  95.     TITLE "Bird of Paradise"
  96.     PERFORMER "Netsky"
  97.     FLAGS DCP
  98.     INDEX 01 69:55:01
  99.   TRACK 20 AUDIO
  100.     TITLE "Blurred Memories (Etherwood Remix)"
  101.     PERFORMER "Bop, Synkro"
  102.     FLAGS DCP
  103.     INDEX 01 73:56:01
  104.   TRACK 21 AUDIO
  105.     TITLE "Another Day (Feat. Theo Jones)"
  106.     PERFORMER "Utile"
  107.     FLAGS DCP
  108.     INDEX 01 78:25:01
  109.   TRACK 22 AUDIO
  110.     TITLE "Got Me Thinking (Feat. Veela)"
  111.     PERFORMER "Maduk"
  112.     FLAGS DCP
  113.     INDEX 01 83:10:01
  114.   TRACK 23 AUDIO
  115.     TITLE "Not Far To Go"
  116.     PERFORMER "Technimatic"
  117.     FLAGS DCP
  118.     INDEX 01 86:27:01
  119.   TRACK 24 AUDIO
  120.     TITLE "Counting Down the Days (Keeno Remix)"
  121.     PERFORMER "Above & Beyond"
  122.     FLAGS DCP
  123.     INDEX 01 91:12:01
RAW Paste Data
We use cookies for various purposes including analytics. By continuing to use Pastebin, you agree to our use of cookies as described in the Cookies Policy. OK, I Understand
 
Top