SHARE
TWEET

Untitled

a guest Mar 28th, 2013 30 Never
Not a member of Pastebin yet? Sign Up, it unlocks many cool features!
  1. === Общие ===
  2. Полное имя                    : Molchanie.1969.DVDRip.XviD.pca1962.avi
  3. Формат                        : AVI
  4. Описание формата              : Audio Video Interleave
  5. Размер файла                  : 1.95 Гб
  6. Длительность                  : 1ч 53мин
  7. Общий битрейт                 : 2 459 кбит/сек
  8. Програмное обеспечение        : VirtualDubModRus 1.5.10.2 (build 2542/release)
  9. Кодирующая библиотека         : VirtualDubMod build 2542/release
  10.  
  11. === Видео ===
  12. ID (Идентификатор)            : 0
  13. Формат                        : MPEG-4 Visual
  14. Профиль формата               : Advanced Simple@L5
  15. Параметр 'BVOP'               : 2
  16. Параметр 'QPel'               : Нет
  17. Параметр 'GMC'                : No warppoints
  18. Параметр 'Matrix'             : Default (MPEG)
  19. Идентификатор кодека          : XVID
  20. Подпись кодека                : XviD
  21. Длительность                  : 1ч 53мин
  22. Битрейт                       : 1805 кбит/сек
  23. Ширина кадра                  : 640 пикселей
  24. Высота кадра                  : 480 пикселей
  25. Соотношение сторон            : 4:3
  26. Частота кадров                : 23.976 кадров/сек
  27. Цветовое пространство         : YUV
  28. Субдискретизация насыщенности : 4:2:0
  29. Глубина (разрядность)         : 8 bits
  30. Тип развертки                 : Прогрессивная
  31. Режим сжатия                  : С потерями
  32. Бит/(пиксель*кадр)            : 0.245
  33. Размер потока                 : 1.43 Гб (73%)
  34. Кодирующая библиотека         : XviD 1.2.1 (UTC 2008-12-04)
  35.  
  36. === Аудио  1 ===
  37. ID (Идентификатор)            : 1
  38. Формат                        : AC-3
  39. Описание формата              : Audio Coding 3
  40. Mode extension                : CM (complete main)
  41. Идентификатор кодека          : 2000
  42. Длительность                  : 1ч 53мин
  43. Тип битрейта                  : Постоянный
  44. Битрейт                       : 192 кбит/сек
  45. Канал(ы)                      : 2 каналов
  46. Расположение каналов          : Front: L R
  47. Частота дискретизации         : 48.0 кГц
  48. Глубина (разрядность)         : 16 bits
  49. Режим сжатия                  : С потерями
  50. Размер потока                 : 156 Мб (8%)
  51. Расположение потока           : Split accross interleaves
  52. Период чередования            : 42 мс (1.00 video frame)
  53. Предварительная загрузка      : 500 мс
  54.  
  55. === Аудио  2 ===
  56. ID (Идентификатор)            : 2
  57. Формат                        : AC-3
  58. Описание формата              : Audio Coding 3
  59. Mode extension                : CM (complete main)
  60. Идентификатор кодека          : 2000
  61. Длительность                  : 1ч 53мин
  62. Тип битрейта                  : Постоянный
  63. Битрейт                       : 448 кбит/сек
  64. Канал(ы)                      : 6 каналов
  65. Расположение каналов          : Front: L C R, Side: L R, LFE
  66. Частота дискретизации         : 48.0 кГц
  67. Глубина (разрядность)         : 16 bits
  68. Режим сжатия                  : С потерями
  69. Размер потока                 : 363 Мб (18%)
  70. Расположение потока           : Split accross interleaves
  71. Период чередования            : 42 мс (1.00 video frame)
  72. Предварительная загрузка      : 500 мс
RAW Paste Data
We use cookies for various purposes including analytics. By continuing to use Pastebin, you agree to our use of cookies as described in the Cookies Policy. OK, I Understand
 
Top