SHARE
TWEET

Untitled

a guest Dec 10th, 2019 141 Never
Not a member of Pastebin yet? Sign Up, it unlocks many cool features!
  1. General
  2. Unique ID                                : 82714592719655625556881712052458314734 (0x3E3A4047CE16F1942A48107B49C55BEE)
  3. Complete name                            : War.2019.1080p.Blu-ray.Remux.AVC.Atmos-KRaLiMaRKo.mkv
  4. Format                                   : Matroska
  5. Format version                           : Version 4
  6. File size                                : 31.9 GiB
  7. Duration                                 : 2 h 33 min
  8. Overall bit rate mode                    : Variable
  9. Overall bit rate                         : 29.8 Mb/s
  10. Movie name                               : War 2019 1080p Blu-ray Remux AVC Atmos - KRaLiMaRKo
  11. Encoded date                             : UTC 2019-12-10 16:50:01
  12. Writing application                      : mkvmerge v40.0.0 ('Old Town Road + Pony') 64-bit
  13. Writing library                          : libebml v1.3.9 + libmatroska v1.5.2
  14.  
  15. Video
  16. ID                                       : 1
  17. Format                                   : AVC
  18. Format/Info                              : Advanced Video Codec
  19. Format profile                           : High@L4.1
  20. Format settings                          : 4 Ref Frames
  21. Format settings, CABAC                   : No
  22. Format settings, Reference frames        : 4 frames
  23. Format settings, GOP                     : M=4, N=12
  24. Codec ID                                 : V_MPEG4/ISO/AVC
  25. Duration                                 : 2 h 33 min
  26. Bit rate                                 : 26.8 Mb/s
  27. Width                                    : 1 920 pixels
  28. Height                                   : 1 080 pixels
  29. Display aspect ratio                     : 16:9
  30. Frame rate mode                          : Constant
  31. Frame rate                               : 24.000 FPS
  32. Color space                              : YUV
  33. Chroma subsampling                       : 4:2:0
  34. Bit depth                                : 8 bits
  35. Scan type                                : Progressive
  36. Bits/(Pixel*Frame)                       : 0.539
  37. Stream size                              : 28.7 GiB (90%)
  38. Language                                 : English
  39. Default                                  : Yes
  40. Forced                                   : No
  41.  
  42. Audio #1
  43. ID                                       : 2
  44. Format                                   : MLP FBA
  45. Format/Info                              : Meridian Lossless Packing FBA
  46. Commercial name                          : Dolby TrueHD
  47. Codec ID                                 : A_TRUEHD
  48. Duration                                 : 2 h 32 min
  49. Bit rate mode                            : Variable
  50. Bit rate                                 : 2 128 kb/s
  51. Maximum bit rate                         : 3 714 kb/s
  52. Channel(s)                               : 8 channels
  53. Channel layout                           : L R C LFE Ls Rs Lb Rb
  54. Sampling rate                            : 48.0 kHz
  55. Frame rate                               : 1 200.000 FPS (40 SPF)
  56. Compression mode                         : Lossless
  57. Stream size                              : 2.27 GiB (7%)
  58. Language                                 : English
  59. Default                                  : Yes
  60. Forced                                   : No
  61.  
  62. Audio #2
  63. ID                                       : 3
  64. Format                                   : AC-3
  65. Format/Info                              : Audio Coding 3
  66. Commercial name                          : Dolby Digital
  67. Codec ID                                 : A_AC3
  68. Duration                                 : 2 h 32 min
  69. Bit rate mode                            : Constant
  70. Bit rate                                 : 640 kb/s
  71. Channel(s)                               : 6 channels
  72. Channel layout                           : L R C LFE Ls Rs
  73. Sampling rate                            : 48.0 kHz
  74. Frame rate                               : 31.250 FPS (1536 SPF)
  75. Compression mode                         : Lossy
  76. Stream size                              : 700 MiB (2%)
  77. Language                                 : English
  78. Service kind                             : Complete Main
  79. Default                                  : No
  80. Forced                                   : No
  81.  
  82. Text #1
  83. ID                                       : 4
  84. Format                                   : PGS
  85. Codec ID                                 : S_HDMV/PGS
  86. Codec ID/Info                            : Picture based subtitle format used on BDs/HD-DVDs
  87. Duration                                 : 2 h 26 min
  88. Bit rate                                 : 19.7 kb/s
  89. Count of elements                        : 2534
  90. Stream size                              : 20.6 MiB (0%)
  91. Language                                 : English
  92. Default                                  : No
  93. Forced                                   : No
  94.  
  95. Text #2
  96. ID                                       : 5
  97. Format                                   : PGS
  98. Codec ID                                 : S_HDMV/PGS
  99. Codec ID/Info                            : Picture based subtitle format used on BDs/HD-DVDs
  100. Duration                                 : 2 h 27 min
  101. Bit rate                                 : 13.1 kb/s
  102. Count of elements                        : 2624
  103. Stream size                              : 13.8 MiB (0%)
  104. Language                                 : Arabic
  105. Default                                  : No
  106. Forced                                   : No
  107.  
  108. Text #3
  109. ID                                       : 6
  110. Format                                   : PGS
  111. Codec ID                                 : S_HDMV/PGS
  112. Codec ID/Info                            : Picture based subtitle format used on BDs/HD-DVDs
  113. Duration                                 : 2 h 27 min
  114. Bit rate                                 : 21.8 kb/s
  115. Count of elements                        : 2624
  116. Stream size                              : 22.9 MiB (0%)
  117. Language                                 : Dutch
  118. Default                                  : No
  119. Forced                                   : No
  120.  
  121. Text #4
  122. ID                                       : 7
  123. Format                                   : PGS
  124. Codec ID                                 : S_HDMV/PGS
  125. Codec ID/Info                            : Picture based subtitle format used on BDs/HD-DVDs
  126. Duration                                 : 2 h 27 min
  127. Bit rate                                 : 20.9 kb/s
  128. Count of elements                        : 2624
  129. Stream size                              : 22.0 MiB (0%)
  130. Language                                 : French
  131. Default                                  : No
  132. Forced                                   : No
  133.  
  134. Text #5
  135. ID                                       : 8
  136. Format                                   : PGS
  137. Codec ID                                 : S_HDMV/PGS
  138. Codec ID/Info                            : Picture based subtitle format used on BDs/HD-DVDs
  139. Duration                                 : 2 h 27 min
  140. Bit rate                                 : 23.5 kb/s
  141. Count of elements                        : 2624
  142. Stream size                              : 24.7 MiB (0%)
  143. Language                                 : Indonesian
  144. Default                                  : No
  145. Forced                                   : No
  146.  
  147. Text #6
  148. ID                                       : 9
  149. Format                                   : PGS
  150. Codec ID                                 : S_HDMV/PGS
  151. Codec ID/Info                            : Picture based subtitle format used on BDs/HD-DVDs
  152. Duration                                 : 2 h 27 min
  153. Bit rate                                 : 23.6 kb/s
  154. Count of elements                        : 2624
  155. Stream size                              : 24.9 MiB (0%)
  156. Language                                 : Malay
  157. Default                                  : No
  158. Forced                                   : No
  159.  
  160. Text #7
  161. ID                                       : 10
  162. Format                                   : PGS
  163. Codec ID                                 : S_HDMV/PGS
  164. Codec ID/Info                            : Picture based subtitle format used on BDs/HD-DVDs
  165. Duration                                 : 2 h 27 min
  166. Bit rate                                 : 21.7 kb/s
  167. Count of elements                        : 2624
  168. Stream size                              : 22.8 MiB (0%)
  169. Language                                 : Polish
  170. Default                                  : No
  171. Forced                                   : No
  172.  
  173. Text #8
  174. ID                                       : 11
  175. Format                                   : PGS
  176. Codec ID                                 : S_HDMV/PGS
  177. Codec ID/Info                            : Picture based subtitle format used on BDs/HD-DVDs
  178. Duration                                 : 2 h 27 min
  179. Bit rate                                 : 22.2 kb/s
  180. Count of elements                        : 2624
  181. Stream size                              : 23.3 MiB (0%)
  182. Title                                    : Latin American
  183. Language                                 : Spanish
  184. Default                                  : No
  185. Forced                                   : No
  186.  
  187. Text #9
  188. ID                                       : 12
  189. Format                                   : PGS
  190. Codec ID                                 : S_HDMV/PGS
  191. Codec ID/Info                            : Picture based subtitle format used on BDs/HD-DVDs
  192. Duration                                 : 2 h 27 min
  193. Bit rate                                 : 20.3 kb/s
  194. Count of elements                        : 2624
  195. Stream size                              : 21.4 MiB (0%)
  196. Language                                 : Thai
  197. Default                                  : No
  198. Forced                                   : No
  199.  
  200. Menu
  201. 00:00:00.000                             : en:Chapter 01
  202. 00:01:10.875                             : en:Chapter 02
  203. 00:04:48.000                             : en:Chapter 03
  204. 00:06:49.000                             : en:Chapter 04
  205. 00:08:17.500                             : en:Chapter 05
  206. 00:14:41.792                             : en:Chapter 06
  207. 00:21:09.000                             : en:Chapter 07
  208. 00:32:10.000                             : en:Chapter 08
  209. 00:39:54.375                             : en:Chapter 09
  210. 00:43:56.458                             : en:Chapter 10
  211. 00:50:33.583                             : en:Chapter 11
  212. 00:56:24.042                             : en:Chapter 12
  213. 01:07:31.375                             : en:Chapter 13
  214. 01:09:44.000                             : en:Chapter 14
  215. 01:13:18.792                             : en:Chapter 15
  216. 01:23:34.667                             : en:Chapter 16
  217. 01:33:05.583                             : en:Chapter 17
  218. 01:46:20.875                             : en:Chapter 18
  219. 01:54:35.125                             : en:Chapter 19
  220. 02:05:24.167                             : en:Chapter 20
  221. 02:13:13.875                             : en:Chapter 21
  222. 02:24:30.792                             : en:Chapter 22
  223. 02:28:53.875                             : en:Chapter 23
RAW Paste Data
We use cookies for various purposes including analytics. By continuing to use Pastebin, you agree to our use of cookies as described in the Cookies Policy. OK, I Understand
Top