Guest User

Untitled

a guest
Nov 9th, 2019
119
Never
Not a member of Pastebin yet? Sign Up, it unlocks many cool features!
  1. General
  2. Unique ID : 282925640405181204587252117627117710057 (0xD4D97F0CCDE36D04E8D0D4037CC32AE9)
  3. Complete name : Dino.King.Journey.To.Fire.Mountain.2019.1080p.WEB-DL.H264.AC3-EVO.mkv
  4. Format : Matroska
  5. Format version : Version 4
  6. File size : 3.65 GiB
  7. Duration : 1 h 34 min
  8. Overall bit rate : 5 553 kb/s
  9. Encoded date : UTC 2019-11-09 21:00:26
  10. Writing application : mkvmerge v35.0.0 ('All The Love In The World') 64-bit
  11. Writing library : libebml v1.3.9 + libmatroska v1.5.2
  12.  
  13. Video
  14. ID : 2
  15. Format : AVC
  16. Format/Info : Advanced Video Codec
  17. Format profile : High@L4
  18. Format settings : CABAC / 4 Ref Frames
  19. Format settings, CABAC : Yes
  20. Format settings, Reference frames : 4 frames
  21. Codec ID : V_MPEG4/ISO/AVC
  22. Duration : 1 h 34 min
  23. Bit rate : 5 167 kb/s
  24. Width : 1 920 pixels
  25. Height : 1 038 pixels
  26. Display aspect ratio : 1.85:1
  27. Frame rate mode : Constant
  28. Frame rate : 24.000 FPS
  29. Color space : YUV
  30. Chroma subsampling : 4:2:0
  31. Bit depth : 8 bits
  32. Scan type : Progressive
  33. Bits/(Pixel*Frame) : 0.108
  34. Stream size : 3.40 GiB (93%)
  35. Language : English
  36. Default : Yes
  37. Forced : No
  38. Color range : Limited
  39. Color primaries : BT.709
  40. Transfer characteristics : BT.709
  41. Matrix coefficients : BT.709
  42.  
  43. Audio
  44. ID : 1
  45. Format : AC-3
  46. Format/Info : Audio Coding 3
  47. Commercial name : Dolby Digital
  48. Codec ID : A_AC3
  49. Duration : 1 h 34 min
  50. Bit rate mode : Constant
  51. Bit rate : 384 kb/s
  52. Channel(s) : 6 channels
  53. Channel layout : L R C LFE Ls Rs
  54. Sampling rate : 48.0 kHz
  55. Frame rate : 31.250 FPS (1536 SPF)
  56. Compression mode : Lossy
  57. Delay relative to video : -42 ms
  58. Stream size : 258 MiB (7%)
  59. Language : English
  60. Service kind : Complete Main
  61. Default : Yes
  62. Forced : No
  63.  
  64. Menu
  65. 00:00:00.000 : en:1
  66. 00:09:15.208 : en:2
  67. 00:18:23.124 : en:3
  68. 00:24:32.832 : en:4
  69. 00:33:48.414 : en:5
  70. 00:40:15.789 : en:6
  71. 00:48:16.330 : en:7
  72. 00:56:13.121 : en:8
  73. 01:03:51.037 : en:9
  74. 01:11:48.287 : en:10
  75. 01:26:22.328 : en:11
  76. 01:29:18.328 : en:12
RAW Paste Data