SHARE
TWEET

Untitled

a guest Jan 23rd, 2013 43 Never
Not a member of Pastebin yet? Sign Up, it unlocks many cool features!
  1. MediaInfo:
  2. General
  3. Unique ID                                : 182183591033554934015823184105326181455 (0x890F4888A056402792BBA96E3352FC4F)
  4. Complete name                            : some_movie.mkv
  5. Format                                   : Matroska
  6. Format version                           : Version 1
  7. File size                                : 6.54 GiB
  8. Duration                                 : 1h 55mn
  9. Overall bit rate mode                    : Variable
  10. Overall bit rate                         : 8 119 Kbps
  11. Movie name                               : ******* (2207)
  12. Encoded date                             : UTC 2009-01-24 21:26:44
  13. Writing application                      : mkvmerge v2.4.1 ('Use Me') built on Dec  5 2008 18:30:05
  14. Writing library                          : libebml v0.7.7 + libmatroska v0.8.1
  15. Attachment                               : Yes / Yes / Yes
  16.  
  17. Video
  18. ID                                       : 1
  19. Format                                   : AVC
  20. Format/Info                              : Advanced Video Codec
  21. Format profile                           : High@L4.1
  22. Format settings, CABAC                   : Yes
  23. Format settings, ReFrames                : 8 frames
  24. Codec ID                                 : V_MPEG4/ISO/AVC
  25. Duration                                 : 1h 55mn
  26. Bit rate                                 : 6 530 Kbps
  27. Width                                    : 1 280 pixels
  28. Height                                   : 534 pixels
  29. Display aspect ratio                     : 2.40:1
  30. Frame rate                               : 23.976 fps
  31. Color space                              : YUV
  32. Chroma subsampling                       : 4:2:0
  33. Bit depth                                : 8 bits
  34. Scan type                                : Progressive
  35. Bits/(Pixel*Frame)                       : 0.398
  36. Stream size                              : 5.13 GiB (78%)
  37. Writing library                          : x264 core 65 r1074M b6bb3d4
  38. Encoding settings                        : cabac=1 / ref=8 / deblock=1:-3:-3 / analyse=0x3:0x133 / me=umh / subme=9 / psy_rd=0.7:0.6 / mixed_ref=1 / me_range=16 / chroma_me=1 / trellis=2 / 8x8dct=1 / cqm=2 / deadzone=21,11 / chroma_qp_offset=-2 / threads=3 / nr=0 / decimate=1 / mbaff=0 / bframes=3 / b_pyramid=1 / b_adapt=2 / b_bias=0 / direct=1 / wpredb=1 / keyint=250 / keyint_min=25 / scenecut=40(pre) / rc=2pass / bitrate=6530 / ratetol=1.0 / qcomp=0.60 / qpmin=10 / qpmax=45 / qpstep=4 / cplxblur=20.0 / qblur=0.5 / ip_ratio=1.40 / pb_ratio=1.30 / aq=1:0.70
  39. Language                                 : English
  40. Default                                  : Yes
  41. Forced                                   : No
  42.  
  43. Audio #1
  44. ID                                       : 2
  45. Format                                   : DTS
  46. Format/Info                              : Digital Theater Systems
  47. Codec ID                                 : A_DTS
  48. Duration                                 : 1h 55mn
  49. Bit rate mode                            : Constant
  50. Bit rate                                 : 1 510 Kbps
  51. Channel(s)                               : 6 channels
  52. Channel positions                        : Front: L C R, Side: L R, LFE
  53. Sampling rate                            : 48.0 KHz
  54. Bit depth                                : 24 bits
  55. Compression mode                         : Lossy
  56. Stream size                              : 1.22 GiB (19%)
  57. Language                                 : English
  58. Default                                  : Yes
  59. Forced                                   : No
  60.  
  61. Audio #2
  62. ID                                       : 3
  63. Format                                   : Vorbis
  64. Format settings, Floor                   : 1
  65. Codec ID                                 : A_VORBIS
  66. Duration                                 : 1h 55mn
  67. Bit rate mode                            : Variable
  68. Bit rate                                 : 80.0 Kbps
  69. Channel(s)                               : 2 channels
  70. Sampling rate                            : 48.0 KHz
  71. Compression mode                         : Lossy
  72. Stream size                              : 66.0 MiB (1%)
  73. Title                                    : Commentary
  74. Writing library                          : libVorbis 1.1.1/1.1.2 (UTC 2005-03-04)
  75. Language                                 : English
  76. Default                                  : No
  77. Forced                                   : No
  78.  
  79. Text #1
  80. ID                                       : 4
  81. Format                                   : ASS
  82. Codec ID                                 : S_TEXT/ASS
  83. Codec ID/Info                            : Advanced Sub Station Alpha
  84. Compression mode                         : Lossless
  85. Language                                 : English
  86. Default                                  : Yes
  87. Forced                                   : No
  88.  
  89. Text #2
  90. ID                                       : 5
  91. Format                                   : ASS
  92. Codec ID                                 : S_TEXT/ASS
  93. Codec ID/Info                            : Advanced Sub Station Alpha
  94. Compression mode                         : Lossless
  95. Language                                 : Czech
  96. Default                                  : No
  97. Forced                                   : No
  98.  
  99. Text #3
  100. ID                                       : 6
  101. Format                                   : ASS
  102. Codec ID                                 : S_TEXT/ASS
  103. Codec ID/Info                            : Advanced Sub Station Alpha
  104. Compression mode                         : Lossless
  105. Language                                 : Danish
  106. Default                                  : No
  107. Forced                                   : No
  108.  
  109. Text #4
  110. ID                                       : 7
  111. Format                                   : ASS
  112. Codec ID                                 : S_TEXT/ASS
  113. Codec ID/Info                            : Advanced Sub Station Alpha
  114. Compression mode                         : Lossless
  115. Language                                 : Dutch
  116. Default                                  : No
  117. Forced                                   : No
  118.  
  119. Text #5
  120. ID                                       : 8
  121. Format                                   : ASS
  122. Codec ID                                 : S_TEXT/ASS
  123. Codec ID/Info                            : Advanced Sub Station Alpha
  124. Compression mode                         : Lossless
  125. Language                                 : French
  126. Default                                  : No
  127. Forced                                   : No
  128.  
  129. Text #6
  130. ID                                       : 9
  131. Format                                   : ASS
  132. Codec ID                                 : S_TEXT/ASS
  133. Codec ID/Info                            : Advanced Sub Station Alpha
  134. Compression mode                         : Lossless
  135. Language                                 : Hungarian
  136. Default                                  : No
  137. Forced                                   : No
  138.  
  139. Text #7
  140. ID                                       : 10
  141. Format                                   : ASS
  142. Codec ID                                 : S_TEXT/ASS
  143. Codec ID/Info                            : Advanced Sub Station Alpha
  144. Compression mode                         : Lossless
  145. Language                                 : Norwegian
  146. Default                                  : No
  147. Forced                                   : No
  148.  
  149. Text #8
  150. ID                                       : 11
  151. Format                                   : ASS
  152. Codec ID                                 : S_TEXT/ASS
  153. Codec ID/Info                            : Advanced Sub Station Alpha
  154. Compression mode                         : Lossless
  155. Language                                 : Portuguese
  156. Default                                  : No
  157. Forced                                   : No
  158.  
  159. Text #9
  160. ID                                       : 12
  161. Format                                   : ASS
  162. Codec ID                                 : S_TEXT/ASS
  163. Codec ID/Info                            : Advanced Sub Station Alpha
  164. Compression mode                         : Lossless
  165. Language                                 : Romanian
  166. Default                                  : No
  167. Forced                                   : No
  168.  
  169. Text #10
  170. ID                                       : 13
  171. Format                                   : ASS
  172. Codec ID                                 : S_TEXT/ASS
  173. Codec ID/Info                            : Advanced Sub Station Alpha
  174. Compression mode                         : Lossless
  175. Language                                 : Spanish
  176. Default                                  : No
  177. Forced                                   : No
RAW Paste Data
We use cookies for various purposes including analytics. By continuing to use Pastebin, you agree to our use of cookies as described in the Cookies Policy. OK, I Understand
Not a member of Pastebin yet?
Sign Up, it unlocks many cool features!
 
Top