SHARE
TWEET

Source MI Gold

mhimranhossain97 Dec 3rd, 2019 100 Never
Not a member of Pastebin yet? Sign Up, it unlocks many cool features!
  1. General
  2. Unique ID                                : 207715903184148155193813026780655354470 (0x9C44A0B6A265100C08DB2519371B8266)
  3. Complete name                            : /home/mh/Misc/NF/The.Goldfinch.2019.1080p.BluRay.REMUX.AVC.DTS-HD.MA 5.1-AROMA/The.Goldfinch.2019.1080p.BluRay.REMUX.AVC.DTS-HD.MA 5.1-AROMA.mkv
  4. Format                                   : Matroska
  5. Format version                           : Version 4 / Version 2
  6. File size                                : 29.3 GiB
  7. Duration                                 : 2 h 29 min
  8. Overall bit rate mode                    : Variable
  9. Overall bit rate                         : 28.0 Mb/s
  10. Encoded date                             : UTC 2019-11-27 20:05:11
  11. Writing application                      : mkvmerge v40.0.0 ('Old Town Road + Pony') 64-bit
  12. Writing library                          : libebml v1.3.9 + libmatroska v1.5.2
  13.  
  14. Video
  15. ID                                       : 1
  16. Format                                   : AVC
  17. Format/Info                              : Advanced Video Codec
  18. Format profile                           : High@L4.1
  19. Format settings                          : CABAC / 4 Ref Frames
  20. Format settings, CABAC                   : Yes
  21. Format settings, ReFrames                : 4 frames
  22. Codec ID                                 : V_MPEG4/ISO/AVC
  23. Duration                                 : 2 h 29 min
  24. Bit rate mode                            : Variable
  25. Bit rate                                 : 25.8 Mb/s
  26. Maximum bit rate                         : 34.0 Mb/s
  27. Width                                    : 1 920 pixels
  28. Height                                   : 1 080 pixels
  29. Display aspect ratio                     : 16:9
  30. Frame rate mode                          : Constant
  31. Frame rate                               : 23.976 (24000/1001) FPS
  32. Color space                              : YUV
  33. Chroma subsampling                       : 4:2:0
  34. Bit depth                                : 8 bits
  35. Scan type                                : Progressive
  36. Bits/(Pixel*Frame)                       : 0.518
  37. Stream size                              : 26.9 GiB (92%)
  38. Default                                  : Yes
  39. Forced                                   : No
  40.  
  41. Audio
  42. ID                                       : 2
  43. Format                                   : DTS
  44. Format/Info                              : Digital Theater Systems
  45. Format profile                           : MA / Core
  46. Codec ID                                 : A_DTS
  47. Duration                                 : 2 h 29 min
  48. Bit rate mode                            : Variable / Constant
  49. Bit rate                                 : 2 175 kb/s / 1 509 kb/s
  50. Channel(s)                               : 6 channels
  51. Channel positions                        : Front: L C R, Side: L R, LFE
  52. Sampling rate                            : 48.0 kHz
  53. Frame rate                               : 93.750 FPS (512 SPF)
  54. Bit depth                                : 16 bits
  55. Compression mode                         : Lossless / Lossy
  56. Stream size                              : 2.27 GiB (8%)
  57. Language                                 : English
  58. Default                                  : Yes
  59. Forced                                   : No
  60.  
  61. Text #1
  62. ID                                       : 3
  63. Format                                   : PGS
  64. Codec ID                                 : S_HDMV/PGS
  65. Codec ID/Info                            : Picture based subtitle format used on BDs/HD-DVDs
  66. Duration                                 : 2 h 20 min
  67. Bit rate                                 : 31.3 kb/s
  68. Count of elements                        : 3736
  69. Stream size                              : 31.4 MiB (0%)
  70. Language                                 : English
  71. Default                                  : No
  72. Forced                                   : No
  73.  
  74. Text #2
  75. ID                                       : 4
  76. Format                                   : PGS
  77. Codec ID                                 : S_HDMV/PGS
  78. Codec ID/Info                            : Picture based subtitle format used on BDs/HD-DVDs
  79. Duration                                 : 2 h 28 min
  80. Bit rate                                 : 24.7 kb/s
  81. Count of elements                        : 3396
  82. Stream size                              : 26.2 MiB (0%)
  83. Language                                 : French
  84. Default                                  : No
  85. Forced                                   : No
  86.  
  87. Text #3
  88. ID                                       : 5
  89. Format                                   : PGS
  90. Codec ID                                 : S_HDMV/PGS
  91. Codec ID/Info                            : Picture based subtitle format used on BDs/HD-DVDs
  92. Duration                                 : 2 h 28 min
  93. Bit rate                                 : 26.4 kb/s
  94. Count of elements                        : 3360
  95. Stream size                              : 28.0 MiB (0%)
  96. Language                                 : Spanish
  97. Default                                  : No
  98. Forced                                   : No
  99.  
  100. Text #4
  101. ID                                       : 6
  102. Format                                   : PGS
  103. Codec ID                                 : S_HDMV/PGS
  104. Codec ID/Info                            : Picture based subtitle format used on BDs/HD-DVDs
  105. Duration                                 : 2 h 28 min
  106. Bit rate                                 : 26.5 kb/s
  107. Count of elements                        : 3354
  108. Stream size                              : 28.1 MiB (0%)
  109. Language                                 : Portuguese
  110. Default                                  : No
  111. Forced                                   : No
  112.  
  113. Menu
  114. 00:00:00.000                             : :Chapter 01
  115. 00:10:12.821                             : :Chapter 02
  116. 00:18:52.673                             : :Chapter 03
  117. 00:29:06.662                             : :Chapter 04
  118. 00:38:02.947                             : :Chapter 05
  119. 00:48:50.886                             : :Chapter 06
  120. 00:57:58.684                             : :Chapter 07
  121. 01:07:23.706                             : :Chapter 08
  122. 01:13:11.596                             : :Chapter 09
  123. 01:21:32.387                             : :Chapter 10
  124. 01:30:45.774                             : :Chapter 11
  125. 01:40:34.695                             : :Chapter 12
  126. 01:47:09.632                             : :Chapter 13
  127. 01:59:06.890                             : :Chapter 14
  128. 02:04:56.197                             : :Chapter 15
  129. 02:11:11.864                             : :Chapter 16
  130. 02:21:56.425                             : :Chapter 17
RAW Paste Data
We use cookies for various purposes including analytics. By continuing to use Pastebin, you agree to our use of cookies as described in the Cookies Policy. OK, I Understand
Top