Guest User

Untitled

a guest
May 25th, 2017
530
Never
Not a member of Pastebin yet? Sign Up, it unlocks many cool features!
  1. General
  2. Unique ID : 245449339607112193600483266059454619997 (0xB8A7D2C3A7632E72A39DCB961ECBA15D)
  3. Complete name : F:\Video\The.Assignment.2016.BDRip.1080p.ExKinoRay.mkv
  4. Format : Matroska
  5. Format version : Version 4 / Version 2
  6. File size : 10.7 GiB
  7. Duration : 1 h 34 min
  8. Overall bit rate : 16.1 Mb/s
  9. Encoded date : UTC 2017-05-25 17:45:14
  10. Writing application : mkvmerge v12.0.0 ('Trust / Lust') 64bit
  11. Writing library : libebml v1.3.4 + libmatroska v1.4.5
  12.  
  13. Video
  14. ID : 1
  15. Format : AVC
  16. Format/Info : Advanced Video Codec
  17. Format profile : High@L4.1
  18. Format settings, CABAC : Yes
  19. Format settings, ReFrames : 4 frames
  20. Codec ID : V_MPEG4/ISO/AVC
  21. Duration : 1 h 34 min
  22. Bit rate : 13.8 Mb/s
  23. Width : 1 920 pixels
  24. Height : 804 pixels
  25. Display aspect ratio : 2.40:1
  26. Frame rate mode : Constant
  27. Frame rate : 23.976 (24000/1001) FPS
  28. Color space : YUV
  29. Chroma subsampling : 4:2:0
  30. Bit depth : 8 bits
  31. Scan type : Progressive
  32. Bits/(Pixel*Frame) : 0.372
  33. Stream size : 9.12 GiB (85%)
  34. Writing library : x264 core 149 r2771+45 509cceb 7mod [8-bit@all X86_64]
  35. Encoding settings : cabac=1 / ref=4 / deblock=1:-3:-3 / analyse=0x3:0x113 / me=umh / subme=10 / psy=1 / fade_compensate=0.00 / psy_rd=0.90:0.10 / mixed_ref=1 / me_range=48 / chroma_me=1 / trellis=2 / 8x8dct=1 / cqm=0 / deadzone=21,11 / fast_pskip=0 / chroma_qp_offset=-2 / threads=12 / lookahead_threads=2 / sliced_threads=0 / nr=0 / decimate=1 / interlaced=0 / bluray_compat=0 / constrained_intra=0 / fgo=0 / bframes=8 / b_pyramid=2 / b_adapt=2 / b_bias=0 / direct=3 / weightb=1 / open_gop=0 / weightp=2 / keyint=250 / keyint_min=23 / scenecut=40 / intra_refresh=0 / rc_lookahead=40 / rc=crf / mbtree=0 / crf=21.0000 / qcomp=0.70 / qpmin=0:0:0 / qpmax=69:69:69 / qpstep=4 / vbv_maxrate=35000 / vbv_bufsize=35000 / crf_max=0.0 / nal_hrd=none / filler=0 / ip_ratio=1.40 / pb_ratio=1.30 / aq=3:1.00 / aq-sensitivity=10.00 / aq-factor=1.00:1.00:1.00 / aq2=0 / aq3=2:[0.50:0.50]:[0.50:0.50]:[0.50:0.50]:[0.50:0.50] / aq3-sensitivity=10.00 / aq3-factor=[1.00:1.00]:[1.00:1.00]:[1.00:1.00] / aq3-boundary=192:64:24
  36. Language : English
  37. Default : Yes
  38. Forced : No
  39. Color range : Limited
  40. Matrix coefficients : BT.709
  41.  
  42. Audio #1
  43. ID : 2
  44. Format : AC-3
  45. Format/Info : Audio Coding 3
  46. Format settings, Endianness : Big
  47. Codec ID : A_AC3
  48. Duration : 1 h 34 min
  49. Bit rate mode : Constant
  50. Bit rate : 384 kb/s
  51. Channel(s) : 6 channels
  52. Channel positions : Front: L C R, Side: L R, LFE
  53. Sampling rate : 48.0 kHz
  54. Frame rate : 31.250 FPS (1536 spf)
  55. Bit depth : 16 bits
  56. Compression mode : Lossy
  57. Stream size : 260 MiB (2%)
  58. Title : MVO [Muzoboz]
  59. Language : Russian
  60. Service kind : Complete Main
  61. Default : Yes
  62. Forced : No
  63.  
  64. Audio #2
  65. ID : 3
  66. Format : AC-3
  67. Format/Info : Audio Coding 3
  68. Format settings, Endianness : Big
  69. Codec ID : A_AC3
  70. Duration : 1 h 34 min
  71. Bit rate mode : Constant
  72. Bit rate : 448 kb/s
  73. Channel(s) : 6 channels
  74. Channel positions : Front: L C R, Side: L R, LFE
  75. Sampling rate : 48.0 kHz
  76. Frame rate : 31.250 FPS (1536 spf)
  77. Bit depth : 16 bits
  78. Compression mode : Lossy
  79. Stream size : 304 MiB (3%)
  80. Title : VO [Solod]
  81. Language : Russian
  82. Service kind : Complete Main
  83. Default : No
  84. Forced : No
  85.  
  86. Audio #3
  87. ID : 4
  88. Format : DTS
  89. Format/Info : Digital Theater Systems
  90. Mode : 16
  91. Format settings, Endianness : Big
  92. Codec ID : A_DTS
  93. Duration : 1 h 34 min
  94. Bit rate mode : Constant
  95. Bit rate : 1 509 kb/s
  96. Channel(s) : 6 channels
  97. Channel positions : Front: L C R, Side: L R, LFE
  98. Sampling rate : 48.0 kHz
  99. Frame rate : 93.750 FPS (512 spf)
  100. Bit depth : 24 bits
  101. Compression mode : Lossy
  102. Stream size : 1 024 MiB (9%)
  103. Title : Original
  104. Language : English
  105. Default : No
  106. Forced : No
  107.  
  108. Text
  109. ID : 5
  110. Format : UTF-8
  111. Codec ID : S_TEXT/UTF8
  112. Codec ID/Info : UTF-8 Plain Text
  113. Duration : 1 h 29 min
  114. Bit rate : 61 b/s
  115. Count of elements : 1147
  116. Stream size : 40.4 KiB (0%)
  117. Title : Full
  118. Language : English
  119. Default : No
  120. Forced : No
  121.  
  122. Menu
  123. 00:00:00.000 : en:00:00:00.000
  124. 00:06:05.865 : en:00:06:05.865
  125. 00:13:09.247 : en:00:13:09.247
  126. 00:18:48.210 : en:00:18:48.210
  127. 00:24:14.578 : en:00:24:14.578
  128. 00:30:49.347 : en:00:30:49.347
  129. 00:36:29.229 : en:00:36:29.229
  130. 00:41:31.364 : en:00:41:31.364
  131. 00:48:11.847 : en:00:48:11.847
  132. 00:54:17.796 : en:00:54:17.796
  133. 01:00:19.866 : en:01:00:19.866
  134. 01:04:19.355 : en:01:04:19.355
  135. 01:09:47.683 : en:01:09:47.683
  136. 01:17:38.737 : en:01:17:38.737
  137. 01:25:05.600 : en:01:25:05.600
  138. 01:30:51.446 : en:01:30:51.446
RAW Paste Data