Guest User

Untitled

a guest
Jul 11th, 2019
127
Never
Not a member of Pastebin yet? Sign Up, it unlocks many cool features!
  1. E/FFMPEG -: ffmpeg version n4.0-39-gda39990 Copyright (c) 2000-2018 the FFmpeg developers
  2. E/FFMPEG -: built with gcc 4.9.x (GCC) 20150123 (prerelease)
  3. E/FFMPEG -: configuration: --target-os=linux --cross-prefix=/root/bravobit/ffmpeg-android/toolchain-android/bin/arm-linux-androideabi- --arch=arm --cpu=cortex-a8 --enable-runtime-cpudetect --sysroot=/root/bravobit/ffmpeg-android/toolchain-android/sysroot --enable-pic --enable-libx264 --enable-ffprobe --enable-libopus --enable-libvorbis --enable-libfdk-aac --enable-libfreetype --enable-libfribidi --enable-libmp3lame --enable-fontconfig --enable-libvpx --enable-libass --enable-yasm --enable-pthreads --disable-debug --enable-version3 --enable-hardcoded-tables --disable-ffplay --disable-linux-perf --disable-doc --disable-shared --enable-static --enable-runtime-cpudetect --enable-nonfree --enable-network --enable-avresample --enable-avformat --enable-avcodec --enable-indev=lavfi --enable-hwaccels --enable-ffmpeg --enable-zlib --enable-gpl --enable-small --enable-nonfree --pkg-config=pkg-config --pkg-config-flags=--static --prefix=/root/bravobit/ffmpeg-android/build/armeabi-v7a --extra-cflags='-I/root/bravobit/ffmpeg-android/toolchain-android/include -U_FORTIFY_SOURCE -D_FORTIFY_SOURCE=2 -fno-strict-overflow -fstack-protector-all' --extra-ldflags='-L/root/bravobit/ffmpeg-android/toolchain-android/lib -Wl,-z,relro -Wl,-z,now -pie' --extra-cxxflags=
  4. E/FFMPEG -: libavutil 56. 14.100 / 56. 14.100
  5. E/FFMPEG -: libavcodec 58. 18.100 / 58. 18.100
  6. E/FFMPEG -: libavformat 58. 12.100 / 58. 12.100
  7. E/FFMPEG -: libavdevice 58. 3.100 / 58. 3.100
  8. E/FFMPEG -: libavfilter 7. 16.100 / 7. 16.100
  9. E/FFMPEG -: libavresample 4. 0. 0 / 4. 0. 0
  10. E/FFMPEG -: libswscale 5. 1.100 / 5. 1.100
  11. E/FFMPEG -: libswresample 3. 1.100 / 3. 1.100
  12. E/FFMPEG -: libpostproc 55. 1.100 / 55. 1.100
  13. E/ViewRootImpl: sendUserActionEvent() returned.
  14. E/FFMPEG -: Input #0, mov,mp4,m4a,3gp,3g2,mj2, from '/storage/emulated/0/Android/data/packagename/files/CameraTemp/2019_07_11_12_31_48.mp4':
  15. E/FFMPEG -: Metadata:
  16. E/FFMPEG -: major_brand : mp42
  17. E/FFMPEG -: minor_version : 0
  18. E/FFMPEG -: compatible_brands: isommp42
  19. E/FFMPEG -: creation_time : 2019-07-11T10:31:55.000000Z
  20. E/FFMPEG -: com.android.version: 8.1.0
  21. E/FFMPEG -: Duration: 00:00:02.39, start: 0.000000, bitrate: 17371 kb/s
  22. E/FFMPEG -: Stream #0:0(eng): Video: h264 (avc1 / 0x31637661), yuv420p(tv, bt709), 1920x1080, 17244 kb/s, SAR 1:1 DAR 16:9, 29.96 fps, 30 tbr, 90k tbn, 180k tbc (default)
  23. E/FFMPEG -: Metadata:
  24. E/FFMPEG -: rotate : 90
  25. E/FFMPEG -: creation_time : 2019-07-11T10:31:55.000000Z
  26. E/FFMPEG -: handler_name : VideoHandle
  27. E/FFMPEG -: Side data:
  28. E/FFMPEG -: displaymatrix: rotation of -90.00 degrees
  29. E/FFMPEG -: Stream #0:1(eng): Audio: aac (mp4a / 0x6134706D), 48000 Hz, stereo, fltp, 256 kb/s (default)
  30. E/FFMPEG -: Metadata:
  31. E/FFMPEG -: creation_time : 2019-07-11T10:31:55.000000Z
  32. E/FFMPEG -: handler_name : SoundHandle
  33. E/FFMPEG -: Input #1, png_pipe, from '/storage/emulated/0/Android/data/packagename/files/MyVideos/tempShapes.png':
  34. E/FFMPEG -: Duration: N/A, bitrate: N/A
  35. E/FFMPEG -: Stream #1:0: Video: png, rgba(pc), 1080x1920, 25 tbr, 25 tbn, 25 tbc
  36. E/FFMPEG -: Stream mapping:
  37. E/FFMPEG -: Stream #0:0 (h264) -> scale (graph 0)
  38. E/FFMPEG -: Stream #1:0 (png) -> scale2ref:default (graph 0)
  39. E/FFMPEG -: scale (graph 0) -> Stream #0:0 (libx264)
  40. E/FFMPEG -: Stream #0:1 -> #0:1 (aac (native) -> aac (native))
  41. E/FFMPEG -: Press [q] to stop, [?] for help
  42. E/FFMPEG -: [libx264 @ 0xe969c680] using SAR=2559/2560
  43. E/FFMPEG -: [libx264 @ 0xe969c680] using cpu capabilities: ARMv6 NEON
  44. E/FFMPEG -: [libx264 @ 0xe969c680] profile Constrained Baseline, level 4.0
  45. E/FFMPEG -: [libx264 @ 0xe969c680] 264 - core 152 r2851M ba24899 - H.264/MPEG-4 AVC codec - Copyleft 2003-2017 - http://www.videolan.org/x264.html - options: cabac=0 ref=1 deblock=0:0:0 analyse=0:0 me=dia subme=0 psy=1 psy_rd=1.00:0.00 mixed_ref=0 me_range=16 chroma_me=1 trellis=0 8x8dct=0 cqm=0 deadzone=21,11 fast_pskip=1 chroma_qp_offset=0 threads=12 lookahead_threads=2 sliced_threads=0 nr=0 decimate=1 interlaced=0 bluray_compat=0 constrained_intra=0 bframes=0 weightp=0 keyint=2 keyint_min=1 scenecut=0 intra_refresh=0 rc=crf mbtree=0 crf=23.0 qcomp=0.60 qpmin=0 qpmax=69 qpstep=4 ip_ratio=1.40 aq=0
  46. E/FFMPEG -: Output #0, mp4, to '/storage/emulated/0/Android/data/packagename/files/MyVideos/2019_07_11_12_32_16.mp4':
  47. E/FFMPEG -: Metadata:
  48. E/FFMPEG -: major_brand : mp42
  49. E/FFMPEG -: minor_version : 0
  50. E/FFMPEG -: compatible_brands: isommp42
  51. E/FFMPEG -: com.android.version: 8.1.0
  52. E/FFMPEG -: encoder : Lavf58.12.100
  53. E/FFMPEG -: Stream #0:0: Video: h264 (libx264) (avc1 / 0x31637661), yuv420p, 1920x1080 [SAR 2559:2560 DAR 853:480], q=-1--1, 29 fps, 14848 tbn, 29 tbc (default)
  54. E/FFMPEG -: Metadata:
  55. E/FFMPEG -: encoder : Lavc58.18.100 libx264
  56. E/FFMPEG -: Side data:
  57. E/FFMPEG -: cpb: bitrate max/min/avg: 0/0/0 buffer size: 0 vbv_delay: -1
  58. E/FFMPEG -: Stream #0:1(eng): Audio: aac (mp4a / 0x6134706D), 48000 Hz, stereo, fltp, 128 kb/s (default)
  59. E/FFMPEG -: Metadata:
  60. E/FFMPEG -: creation_time : 2019-07-11T10:31:55.000000Z
  61. E/FFMPEG -: handler_name : SoundHandle
  62. E/FFMPEG -: encoder : Lavc58.18.100 aac
  63. E/FFMPEG -: frame= 0 fps=0.0 q=0.0 size= 0kB time=00:00:00.42 bitrate= 0.9kbits/s speed=0.266x
  64. E/FFMPEG -: frame= 1 fps=0.4 q=0.0 size= 0kB time=00:00:00.42 bitrate= 0.9kbits/s speed=0.175x
  65. E/FFMPEG -: frame= 4 fps=1.2 q=0.0 size= 0kB time=00:00:00.42 bitrate= 0.9kbits/s speed=0.132x
  66. E/FFMPEG -: frame= 6 fps=1.5 q=0.0 size= 0kB time=00:00:00.42 bitrate= 0.9kbits/s speed=0.107x
  67. E/FFMPEG -: frame= 8 fps=1.7 q=0.0 size= 0kB time=00:00:00.42 bitrate= 0.9kbits/s speed=0.0902x
  68. E/FFMPEG -: frame= 10 fps=1.8 q=0.0 size= 0kB time=00:00:00.42 bitrate= 0.9kbits/s speed=0.0777x
  69. E/FFMPEG -: frame= 12 fps=1.9 q=0.0 size= 0kB time=00:00:00.42 bitrate= 0.9kbits/s speed=0.0684x
  70. E/FFMPEG -: frame= 14 fps=2.0 q=21.0 size= 0kB time=00:00:00.42 bitrate= 0.9kbits/s speed=0.061x
  71. E/FFMPEG -: frame= 16 fps=2.1 q=22.0 size= 0kB time=00:00:00.42 bitrate= 0.9kbits/s speed=0.0552x
  72. E/FFMPEG -: frame= 18 fps=2.1 q=22.0 size= 0kB time=00:00:00.42 bitrate= 0.9kbits/s speed=0.0504x
  73. E/FFMPEG -: Past duration 0.626244 too large
  74. E/FFMPEG -: frame= 20 fps=2.2 q=22.0 size= 0kB time=00:00:00.42 bitrate= 0.9kbits/s speed=0.0463x
  75. E/FFMPEG -: frame= 20 fps=2.1 q=22.0 size= 0kB time=00:00:00.70 bitrate= 0.5kbits/s speed=0.0724x
  76. E/FFMPEG -: Past duration 0.660866 too large
  77. E/FFMPEG -: Past duration 0.695488 too large
  78. E/FFMPEG -: Past duration 0.730110 too large
  79. E/FFMPEG -: frame= 23 fps=2.2 q=19.0 size= 256kB time=00:00:00.76 bitrate=2731.2kbits/s speed=0.0731x
  80. E/FFMPEG -: Past duration 0.764732 too large
  81. E/FFMPEG -: frame= 24 fps=2.1 q=21.0 size= 256kB time=00:00:00.76 bitrate=2731.2kbits/s speed=0.0684x
  82. E/FFMPEG -: frame= 24 fps=2.1 q=-1.0 Lsize= 853kB time=00:00:00.83 bitrate=8403.0kbits/s speed=0.0735x
  83. E/FFMPEG -: video:838kB audio:13kB subtitle:0kB other streams:0kB global headers:0kB muxing overhead: 0.239842%
  84. E/FFMPEG -: [libx264 @ 0xe969c680] frame I:12 Avg QP:19.08 size: 56059
  85. E/FFMPEG -: [libx264 @ 0xe969c680] frame P:12 Avg QP:21.25 size: 15417
  86. E/FFMPEG -: [libx264 @ 0xe969c680] mb I I16..4: 100.0% 0.0% 0.0%
  87. E/FFMPEG -: [libx264 @ 0xe969c680] mb P I16..4: 6.9% 0.0% 0.0% P16..4: 13.4% 0.0% 0.0% 0.0% 0.0% skip:79.8%
  88. E/FFMPEG -: [libx264 @ 0xe969c680] coded y,uvDC,uvAC intra: 24.5% 17.5% 3.8% inter: 8.6% 2.0% 0.0%
  89. E/FFMPEG -: [libx264 @ 0xe969c680] i16 v,h,dc,p: 73% 14% 7% 5%
  90. E/FFMPEG -: [libx264 @ 0xe969c680] i8c dc,h,v,p: 80% 10% 8% 2%
  91. E/FFMPEG -: [libx264 @ 0xe969c680] kb/s:8291.25
  92. E/FFMPEG -: [aac @ 0xe969d100] Qavg: 196.826
RAW Paste Data