iMN0

e0d52291332244bdbc06ab8a158c043e.mkv

Aug 3rd, 2018
282
Never
Not a member of Pastebin yet? Sign Up, it unlocks many cool features!
  1. General
  2. Unique ID : 100092866714345693282764922871550982211 (0x4B4D2F571441066CEAE5BA381BA63843)
  3. Complete name : e0d52291332244bdbc06ab8a158c043e.mkv
  4. Format : Matroska
  5. Format version : Version 4 / Version 2
  6. File size : 19.1 GiB
  7. Duration : 2h 28mn
  8. Overall bit rate : 18.4 Mbps
  9. Movie name : 2001.A.Space.Odyssey.1968.1080p.Blu-ray.REMUX.VC-1.LPCM.5.1-BitHD
  10. Encoded date : UTC 2017-08-05 20:07:37
  11. Writing application : mkvmerge v14.0.0 ('Flow') 64bit
  12. Writing library : libebml v1.3.4 + libmatroska v1.4.5
  13.  
  14. Video
  15. ID : 1
  16. Format : VC-1
  17. Format profile : Advanced@L3
  18. Codec ID : V_MS/VFW/FOURCC / WVC1
  19. Codec ID/Hint : Microsoft
  20. Duration : 2h 28mn
  21. Bit rate : 13.4 Mbps
  22. Width : 1 920 pixels
  23. Height : 1 080 pixels
  24. Display aspect ratio : 16:9
  25. Frame rate mode : Constant
  26. Frame rate : 23.976 (24000/1001) fps
  27. Color space : YUV
  28. Chroma subsampling : 4:2:0
  29. Bit depth : 8 bits
  30. Scan type : Progressive
  31. Compression mode : Lossy
  32. Bits/(Pixel*Frame) : 0.269
  33. Stream size : 13.9 GiB (73%)
  34. Default : Yes
  35. Forced : No
  36.  
  37. Audio #1
  38. ID : 2
  39. Format : PCM
  40. Codec ID : A_PCM/INT/LIT
  41. Duration : 2h 28mn
  42. Bit rate mode : Constant
  43. Bit rate : 4 608 Kbps
  44. Channel(s) : 6 channels
  45. Sampling rate : 48.0 KHz
  46. Frame rate : 32.000 fps (1500 spf)
  47. Bit depth : 16 bits
  48. Stream size : 4.79 GiB (25%)
  49. Title : LPCM 5.1
  50. Language : English
  51. Default : Yes
  52. Forced : No
  53.  
  54. Audio #2
  55. ID : 3
  56. Format : AC-3
  57. Format/Info : Audio Coding 3
  58. Format profile : Dolby Digital
  59. Mode extension : CM (complete main)
  60. Format settings, Endianness : Big
  61. Codec ID : A_AC3
  62. Duration : 2h 28mn
  63. Bit rate mode : Constant
  64. Bit rate : 192 Kbps
  65. Channel(s) : 2 channels
  66. Channel positions : Front: L R
  67. Sampling rate : 48.0 KHz
  68. Frame rate : 31.250 fps (1536 spf)
  69. Compression mode : Lossy
  70. Stream size : 204 MiB (1%)
  71. Title : DD 2.0
  72. Language : English
  73. Default : No
  74. Forced : No
  75.  
  76. Text #1
  77. ID : 4
  78. Format : PGS
  79. Codec ID : S_HDMV/PGS
  80. Codec ID/Info : Picture based subtitle format used on BDs/HD-DVDs
  81. Duration : 1h 58mn
  82. Bit rate : 13.6 Kbps
  83. Count of elements : 1284
  84. Stream size : 11.5 MiB (0%)
  85. Title : English-PGS
  86. Language : English
  87. Default : No
  88. Forced : No
  89.  
  90. Text #2
  91. ID : 5
  92. Format : PGS
  93. Codec ID : S_HDMV/PGS
  94. Codec ID/Info : Picture based subtitle format used on BDs/HD-DVDs
  95. Duration : 2h 15mn
  96. Bit rate : 12.3 Kbps
  97. Count of elements : 1300
  98. Stream size : 11.9 MiB (0%)
  99. Title : English-SDH-PGS
  100. Language : English
  101. Default : No
  102. Forced : No
  103.  
  104. Text #3
  105. ID : 6
  106. Format : PGS
  107. Codec ID : S_HDMV/PGS
  108. Codec ID/Info : Picture based subtitle format used on BDs/HD-DVDs
  109. Duration : 2h 20mn
  110. Bit rate : 9 666 bps
  111. Count of elements : 1264
  112. Stream size : 9.70 MiB (0%)
  113. Title : French-PGS
  114. Language : French
  115. Default : No
  116. Forced : No
  117.  
  118. Text #4
  119. ID : 7
  120. Format : PGS
  121. Codec ID : S_HDMV/PGS
  122. Codec ID/Info : Picture based subtitle format used on BDs/HD-DVDs
  123. Duration : 2h 20mn
  124. Bit rate : 12.6 Kbps
  125. Count of elements : 1290
  126. Stream size : 12.7 MiB (0%)
  127. Title : German-PGS
  128. Language : German
  129. Default : No
  130. Forced : No
  131.  
  132. Text #5
  133. ID : 8
  134. Format : PGS
  135. Codec ID : S_HDMV/PGS
  136. Codec ID/Info : Picture based subtitle format used on BDs/HD-DVDs
  137. Duration : 2h 20mn
  138. Bit rate : 13.3 Kbps
  139. Count of elements : 1318
  140. Stream size : 13.3 MiB (0%)
  141. Title : German-SDH-PGS
  142. Language : German
  143. Default : No
  144. Forced : No
  145.  
  146. Text #6
  147. ID : 9
  148. Format : PGS
  149. Codec ID : S_HDMV/PGS
  150. Codec ID/Info : Picture based subtitle format used on BDs/HD-DVDs
  151. Duration : 2h 20mn
  152. Bit rate : 11.6 Kbps
  153. Count of elements : 1324
  154. Stream size : 11.6 MiB (0%)
  155. Title : Italian-PGS
  156. Language : Italian
  157. Default : No
  158. Forced : No
  159.  
  160. Text #7
  161. ID : 10
  162. Format : PGS
  163. Codec ID : S_HDMV/PGS
  164. Codec ID/Info : Picture based subtitle format used on BDs/HD-DVDs
  165. Duration : 2h 20mn
  166. Bit rate : 12.3 Kbps
  167. Count of elements : 1344
  168. Stream size : 12.3 MiB (0%)
  169. Title : Italian-SDH-PGS
  170. Language : Italian
  171. Default : No
  172. Forced : No
  173.  
  174. Text #8
  175. ID : 11
  176. Format : PGS
  177. Codec ID : S_HDMV/PGS
  178. Codec ID/Info : Picture based subtitle format used on BDs/HD-DVDs
  179. Duration : 2h 20mn
  180. Bit rate : 10.9 Kbps
  181. Count of elements : 1290
  182. Stream size : 10.9 MiB (0%)
  183. Title : Spanish-Castilian-PGS
  184. Language : Spanish
  185. Default : No
  186. Forced : No
  187.  
  188. Text #9
  189. ID : 12
  190. Format : PGS
  191. Codec ID : S_HDMV/PGS
  192. Codec ID/Info : Picture based subtitle format used on BDs/HD-DVDs
  193. Duration : 2h 20mn
  194. Bit rate : 9 781 bps
  195. Count of elements : 1272
  196. Stream size : 9.81 MiB (0%)
  197. Title : Spanish-Latin-American-PGS
  198. Language : Spanish
  199. Default : No
  200. Forced : No
  201.  
  202. Text #10
  203. ID : 13
  204. Format : PGS
  205. Codec ID : S_HDMV/PGS
  206. Codec ID/Info : Picture based subtitle format used on BDs/HD-DVDs
  207. Duration : 2h 19mn
  208. Bit rate : 8 907 bps
  209. Count of elements : 902
  210. Stream size : 8.90 MiB (0%)
  211. Title : Dutch-PGS
  212. Language : Dutch
  213. Default : No
  214. Forced : No
  215.  
  216. Text #11
  217. ID : 14
  218. Format : PGS
  219. Codec ID : S_HDMV/PGS
  220. Codec ID/Info : Picture based subtitle format used on BDs/HD-DVDs
  221. Duration : 2h 20mn
  222. Bit rate : 9 761 bps
  223. Count of elements : 1350
  224. Stream size : 9.79 MiB (0%)
  225. Title : Chinese-PGS
  226. Language : Chinese
  227. Default : No
  228. Forced : No
  229.  
  230. Text #12
  231. ID : 15
  232. Format : PGS
  233. Codec ID : S_HDMV/PGS
  234. Codec ID/Info : Picture based subtitle format used on BDs/HD-DVDs
  235. Duration : 2h 20mn
  236. Bit rate : 8 182 bps
  237. Count of elements : 776
  238. Stream size : 8.21 MiB (0%)
  239. Title : Danish-PGS
  240. Language : Danish
  241. Default : No
  242. Forced : No
  243.  
  244. Text #13
  245. ID : 16
  246. Format : PGS
  247. Codec ID : S_HDMV/PGS
  248. Codec ID/Info : Picture based subtitle format used on BDs/HD-DVDs
  249. Duration : 2h 20mn
  250. Bit rate : 7 933 bps
  251. Count of elements : 752
  252. Stream size : 7.96 MiB (0%)
  253. Title : Finnish-PGS
  254. Language : Finnish
  255. Default : No
  256. Forced : No
  257.  
  258. Text #14
  259. ID : 17
  260. Format : PGS
  261. Codec ID : S_HDMV/PGS
  262. Codec ID/Info : Picture based subtitle format used on BDs/HD-DVDs
  263. Duration : 2h 20mn
  264. Bit rate : 8 156 bps
  265. Count of elements : 1328
  266. Stream size : 8.18 MiB (0%)
  267. Title : Korean-PGS
  268. Language : Korean
  269. Default : No
  270. Forced : No
  271.  
  272. Text #15
  273. ID : 18
  274. Format : PGS
  275. Codec ID : S_HDMV/PGS
  276. Codec ID/Info : Picture based subtitle format used on BDs/HD-DVDs
  277. Duration : 2h 20mn
  278. Bit rate : 8 102 bps
  279. Count of elements : 886
  280. Stream size : 8.13 MiB (0%)
  281. Title : Norwegian-PGS
  282. Language : Norwegian
  283. Default : No
  284. Forced : No
  285.  
  286. Text #16
  287. ID : 19
  288. Format : PGS
  289. Codec ID : S_HDMV/PGS
  290. Codec ID/Info : Picture based subtitle format used on BDs/HD-DVDs
  291. Duration : 2h 20mn
  292. Bit rate : 11.0 Kbps
  293. Count of elements : 1310
  294. Stream size : 11.0 MiB (0%)
  295. Title : Portuguese-Brazilian-PGS
  296. Language : Portuguese
  297. Default : No
  298. Forced : No
  299.  
  300. Text #17
  301. ID : 20
  302. Format : PGS
  303. Codec ID : S_HDMV/PGS
  304. Codec ID/Info : Picture based subtitle format used on BDs/HD-DVDs
  305. Duration : 2h 20mn
  306. Bit rate : 11.8 Kbps
  307. Count of elements : 1292
  308. Stream size : 11.8 MiB (0%)
  309. Title : Portuguese-PGS
  310. Language : Portuguese
  311. Default : No
  312. Forced : No
  313.  
  314. Text #18
  315. ID : 21
  316. Format : PGS
  317. Codec ID : S_HDMV/PGS
  318. Codec ID/Info : Picture based subtitle format used on BDs/HD-DVDs
  319. Duration : 2h 20mn
  320. Bit rate : 7 377 bps
  321. Count of elements : 762
  322. Stream size : 7.40 MiB (0%)
  323. Title : Swedish-PGS
  324. Language : Swedish
  325. Default : No
  326. Forced : No
  327.  
  328. Menu
  329. 00:00:00.000 : en:(01)00:00:00:000
  330. 00:02:57.177 : en:(02)00:02:57:177
  331. 00:04:39.112 : en:(03)00:04:39:112
  332. 00:11:40.032 : en:(04)00:11:40:032
  333. 00:16:58.017 : en:(05)00:16:58:017
  334. 00:19:53.025 : en:(06)00:19:53:025
  335. 00:25:29.027 : en:(07)00:25:29:027
  336. 00:27:38.156 : en:(08)00:27:38:156
  337. 00:29:29.601 : en:(09)00:29:29:601
  338. 00:33:46.024 : en:(10)00:33:46:024
  339. 00:41:08.632 : en:(11)00:41:08:632
  340. 00:45:37.568 : en:(12)00:45:37:568
  341. 00:50:56.553 : en:(13)00:50:56:553
  342. 00:54:42.946 : en:(14)00:54:42:946
  343. 00:58:33.676 : en:(15)00:58:33:676
  344. 01:03:55.998 : en:(16)01:03:55:998
  345. 01:06:05.294 : en:(17)01:06:05:294
  346. 01:12:10.659 : en:(18)01:12:10:659
  347. 01:18:51.893 : en:(19)01:18:51:893
  348. 01:23:01.476 : en:(20)01:23:01:476
  349. 01:27:02.217 : en:(21)01:27:02:217
  350. 01:27:49.264 : en:(22)01:27:49:264
  351. 01:30:07.735 : en:(23)01:30:07:735
  352. 01:32:50.898 : en:(24)01:32:50:898
  353. 01:38:35.576 : en:(25)01:38:35:576
  354. 01:40:47.082 : en:(26)01:40:47:082
  355. 01:45:35.495 : en:(27)01:45:35:495
  356. 01:49:41.575 : en:(28)01:49:41:575
  357. 01:55:19.746 : en:(29)01:55:19:746
  358. 01:57:06.185 : en:(30)01:57:06:185
  359. 02:01:28.281 : en:(31)02:01:28:281
  360. 02:11:33.385 : en:(32)02:11:33:385
  361. 02:17:57.602 : en:(33)02:17:57:602
  362. 02:20:33.425 : en:(34)02:20:33:425
RAW Paste Data