SHARE
TWEET

Blood.Simple.1984.DC.1080p.BluRay.REMUX.AVC.DTS-HD.MA.5.1-EPSiLON

a guest Jun 16th, 2019 21 Never
Not a member of Pastebin yet? Sign Up, it unlocks many cool features!
  1. General
  2. Unique ID                                : 272691086690089906076889634964856649198 (0xCD266497DF6B57294F38665AD8FC35EE)
  3. Complete name                            : Blood.Simple.1984.DC.1080p.BluRay.REMUX.AVC.DTS-HD.MA.5.1-EPSiLON.mkv
  4. Format                                   : Matroska
  5. Format version                           : Version 4
  6. File size                                : 20.5 GiB
  7. Duration                                 : 1 h 35 min
  8. Overall bit rate mode                    : Variable
  9. Overall bit rate                         : 30.7 Mb/s
  10. Encoded date                             : UTC 2018-09-10 13:45:30
  11. Writing application                      : mkvmerge v26.0.0 ('In The Game') 64-bit
  12. Writing library                          : libebml v1.3.6 + libmatroska v1.4.9
  13.  
  14. Video
  15. ID                                       : 1
  16. Format                                   : AVC
  17. Format/Info                              : Advanced Video Codec
  18. Format profile                           : High@L4.1
  19. Format settings                          : CABAC / 4 Ref Frames
  20. Format settings, CABAC                   : Yes
  21. Format settings, Reference frames        : 4 frames
  22. Codec ID                                 : V_MPEG4/ISO/AVC
  23. Duration                                 : 1 h 35 min
  24. Bit rate mode                            : Constant
  25. Bit rate                                 : 27.0 Mb/s
  26. Width                                    : 1 920 pixels
  27. Height                                   : 1 080 pixels
  28. Display aspect ratio                     : 16:9
  29. Frame rate mode                          : Constant
  30. Frame rate                               : 24.000 FPS
  31. Standard                                 : NTSC
  32. Color space                              : YUV
  33. Chroma subsampling                       : 4:2:0
  34. Bit depth                                : 8 bits
  35. Scan type                                : Progressive
  36. Bits/(Pixel*Frame)                       : 0.543
  37. Stream size                              : 18.0 GiB (88%)
  38. Title                                    : MPEG-4 AVC Video / 26997 kbps / 1080p / 24 fps / 16:9 / High Profile 4.1
  39. Language                                 : English
  40. Default                                  : Yes
  41. Forced                                   : No
  42. Color range                              : Limited
  43. Color primaries                          : BT.709
  44. Transfer characteristics                 : BT.709
  45. Matrix coefficients                      : BT.709
  46.  
  47. Audio
  48. ID                                       : 2
  49. Format                                   : DTS XLL
  50. Format/Info                              : Digital Theater Systems
  51. Commercial name                          : DTS-HD Master Audio
  52. Codec ID                                 : A_DTS
  53. Duration                                 : 1 h 35 min
  54. Bit rate mode                            : Variable
  55. Bit rate                                 : 3 767 kb/s
  56. Channel(s)                               : 6 channels
  57. Channel layout                           : C L R Ls Rs LFE
  58. Sampling rate                            : 48.0 kHz
  59. Frame rate                               : 93.750 FPS (512 SPF)
  60. Bit depth                                : 24 bits
  61. Compression mode                         : Lossless
  62. Stream size                              : 2.52 GiB (12%)
  63. Title                                    : DTS-HD Master Audio / 5.1 / 48 kHz / 3767 kbps / 24-bit
  64. Language                                 : English
  65. Default                                  : Yes
  66. Forced                                   : No
  67.  
  68. Text
  69. ID                                       : 3
  70. Format                                   : PGS
  71. Codec ID                                 : S_HDMV/PGS
  72. Codec ID/Info                            : Picture based subtitle format used on BDs/HD-DVDs
  73. Duration                                 : 1 h 32 min
  74. Bit rate                                 : 18.0 kb/s
  75. Count of elements                        : 1282
  76. Stream size                              : 11.9 MiB (0%)
  77. Language                                 : English
  78. Default                                  : No
  79. Forced                                   : No
  80.  
  81. Menu
  82. 00:00:00.000                             : en:Chapter 1
  83. 00:11:57.750                             : en:Chapter 2
  84. 00:20:10.208                             : en:Chapter 3
  85. 00:30:22.417                             : en:Chapter 4
  86. 00:42:51.833                             : en:Chapter 5
  87. 00:49:40.167                             : en:Chapter 6
  88. 01:02:25.250                             : en:Chapter 7
  89. 01:11:21.792                             : en:Chapter 8
  90. 01:20:28.250                             : en:Chapter 9
RAW Paste Data
We use cookies for various purposes including analytics. By continuing to use Pastebin, you agree to our use of cookies as described in the Cookies Policy. OK, I Understand
Not a member of Pastebin yet?
Sign Up, it unlocks many cool features!
 
Top