SHARE
TWEET

Handbrake Activity Log 08-22-17

a guest Aug 24th, 2017 63 Never
Not a member of Pastebin yet? Sign Up, it unlocks many cool features!
  1. HandBrake 1.0.7 (2017040900) - 64bit
  2. OS: Microsoft Windows NT 6.1.7601 Service Pack 1 - 64bit
  3. CPU: Intel(R) Core(TM)2 Duo CPU     E8400  @ 3.00GHz
  4. Ram: 6075 MB,
  5. GPU Information:
  6.   NVIDIA GeForce GT 630 - 9.18.13.1422
  7. Screen: 1920x1080
  8. Temp Dir: C:\Users\John\AppData\Local\Temp\
  9. Install Dir: C:\Program Files\HandBrake
  10. Data Dir: C:\Users\John\AppData\Roaming\HandBrake Team\HandBrake\1.0.7.0
  11.  
  12. -------------------------------------------
  13.  
  14. [08:13:40] hb_init: starting libhb thread
  15. [08:13:40] hb_init: starting libhb thread
  16. [08:13:40] hb_init: starting libhb thread
  17. [08:13:41] hb_init: starting libhb thread
  18. [08:13:48] hb_init: starting libhb thread
  19.  
  20.  # Starting Scan ...
  21.  
  22. [08:13:48] CPU: Intel(R) Core(TM)2 Duo CPU     E8400  @ 3.00GHz
  23. [08:13:48]  - logical processor count: 2
  24. [08:13:48] Intel Quick Sync Video support: yes
  25. [08:13:48]  - Intel Media SDK software: API 1.19 (minimum: 1.3)
  26. [08:13:48]  - H.264 encoder: yes
  27. [08:13:48]     - preferred implementation: software
  28. [08:13:48]     - capabilities (software):  bpyramid vsinfo opt1 opt2
  29. [08:13:48]  - H.265 encoder: no
  30. [08:13:48] hb_scan: path=K:\Handbrake\Saphirblau.mkv, title_index=0
  31. udfread ERROR: ECMA 167 Volume Recognition failed
  32. src/libbluray/disc/disc.c:274: failed opening UDF image K:\Handbrake\Saphirblau.mkv
  33. src/libbluray/disc/disc.c:352: error opening file BDMV\index.bdmv
  34. src/libbluray/disc/disc.c:352: error opening file BDMV\BACKUP\index.bdmv
  35. [08:13:48] bd: not a bd - trying as a stream/file instead
  36. libdvdnav: Using dvdnav version 5.0.1
  37. libdvdread: Encrypted DVD support unavailable.
  38. libdvdread:DVDOpenFileUDF:UDFFindFile /VIDEO_TS/VIDEO_TS.IFO failed
  39. libdvdread:DVDOpenFileUDF:UDFFindFile /VIDEO_TS/VIDEO_TS.BUP failed
  40. libdvdread: Can't open file VIDEO_TS.IFO.
  41. libdvdnav: vm: failed to read VIDEO_TS.IFO
  42. [08:13:48] dvd: not a dvd - trying as a stream/file instead
  43. Input #0, matroska,webm, from 'K:\Handbrake\Saphirblau.mkv':
  44.   Metadata:
  45.     title           : SAPHIRBLAU
  46.   Duration: 01:56:06.13, start: 0.000000, bitrate: N/A
  47.     Chapter #0:0: start 0.000000, end 695.541667
  48.     Metadata:
  49.       title           : Chapter 01
  50.     Chapter #0:1: start 695.541667, end 1272.666667
  51.     Metadata:
  52.       title           : Chapter 02
  53.     Chapter #0:2: start 1272.666667, end 1941.416667
  54.     Metadata:
  55.       title           : Chapter 03
  56.     Chapter #0:3: start 1941.416667, end 2550.875000
  57.     Metadata:
  58.       title           : Chapter 04
  59.     Chapter #0:4: start 2550.875000, end 3179.958333
  60.     Metadata:
  61.       title           : Chapter 05
  62.     Chapter #0:5: start 3179.958333, end 3836.750000
  63.     Metadata:
  64.       title           : Chapter 06
  65.     Chapter #0:6: start 3836.750000, end 4319.958333
  66.     Metadata:
  67.       title           : Chapter 07
  68.     Chapter #0:7: start 4319.958333, end 5069.583333
  69.     Metadata:
  70.       title           : Chapter 08
  71.     Chapter #0:8: start 5069.583333, end 5717.333333
  72.     Metadata:
  73.       title           : Chapter 09
  74.     Chapter #0:9: start 5717.333333, end 6326.083333
  75.     Metadata:
  76.       title           : Chapter 10
  77.     Chapter #0:10: start 6326.083333, end 6509.416667
  78.     Metadata:
  79.       title           : Chapter 11
  80.     Chapter #0:11: start 6509.416667, end 6966.133333
  81.     Metadata:
  82.       title           : Chapter 12
  83.     Stream #0:0(eng): Video: h264 (High)
  84.       yuv420p, tv, bt709/bt709/bt709
  85.       1920x1080 [PAR 1:1 DAR 16:9], PAR 1:1 DAR 16:9
  86.       24 fps, 1k tbn
  87.     Metadata:
  88.       BPS-eng         : 18998627
  89.       DURATION-eng    : 01:56:06.125000000
  90.       NUMBER_OF_FRAMES-eng: 167187
  91.       NUMBER_OF_BYTES-eng: 16543351547
  92.       SOURCE_ID-eng   : 001011
  93.       _STATISTICS_WRITING_APP-eng: MakeMKV v1.10.6 win(x64-release)
  94.       _STATISTICS_WRITING_DATE_UTC-eng: 2017-08-14 22:34:23
  95.       _STATISTICS_TAGS-eng: BPS DURATION NUMBER_OF_FRAMES NUMBER_OF_BYTES SOURCE_ID
  96.     Stream #0:1(deu): Audio: dts (DTS)
  97.       48000 Hz, 5.1, fltp, 1536 kb/s (default)
  98.     Metadata:
  99.       title           : Surround 5.1
  100.       BPS-eng         : 1509000
  101.       DURATION-eng    : 01:56:06.133333333
  102.       NUMBER_OF_FRAMES-eng: 653075
  103.       NUMBER_OF_BYTES-eng: 1313986900
  104.       SOURCE_ID-eng   : 001100
  105.       _STATISTICS_WRITING_APP-eng: MakeMKV v1.10.6 win(x64-release)
  106.       _STATISTICS_WRITING_DATE_UTC-eng: 2017-08-14 22:34:23
  107.       _STATISTICS_TAGS-eng: BPS DURATION NUMBER_OF_FRAMES NUMBER_OF_BYTES SOURCE_ID
  108.     Stream #0:2(deu): Subtitle: hdmv_pgs_subtitle
  109.     Metadata:
  110.       BPS-eng         : 46839
  111.       DURATION-eng    : 01:54:50.687500000
  112.       NUMBER_OF_FRAMES-eng: 3450
  113.       NUMBER_OF_BYTES-eng: 40344816
  114.       SOURCE_ID-eng   : 001200
  115.       _STATISTICS_WRITING_APP-eng: MakeMKV v1.10.6 win(x64-release)
  116.       _STATISTICS_WRITING_DATE_UTC-eng: 2017-08-14 22:34:23
  117.       _STATISTICS_TAGS-eng: BPS DURATION NUMBER_OF_FRAMES NUMBER_OF_BYTES SOURCE_ID
  118. [08:13:48] scan: decoding previews for title 1
  119. [08:13:48] scan: audio 0x1: dca, rate=48000Hz, bitrate=1536000 Deutsch (DTS) (5.1 ch)
  120. [08:13:49] scan: 10 previews, 1920x1080, 24.000 fps, autocrop = 132/132/0/0, aspect 16:9, PAR 1:1
  121. [08:13:49] scan: supported video decoders: avcodec qsv
  122. [08:13:49] libhb: scan thread found 1 valid title(s)
  123.  
  124.  # Scan Finished ...
RAW Paste Data
Top