SHARE
TWEET

The.Boy.In.The.Striped.Pajamas.2008.1080p.BluRay.DTS.x264-CtrlHD

a guest May 19th, 2019 6 Never
Not a member of Pastebin yet? Sign Up, it unlocks many cool features!
  1. General
  2. Unique ID                                : 175405071589984094765047314382738164848 (0x83F5C9B8E096B729B3D759EF84740C70)
  3. Complete name                            : The.Boy.In.The.Striped.Pajamas.2008.1080p.BluRay.DTS.x264-CtrlHD.mkv
  4. Format                                   : Matroska
  5. Format version                           : Version 2
  6. File size                                : 7.95 GiB
  7. Duration                                 : 1 h 34 min
  8. Overall bit rate                         : 12.0 Mb/s
  9. Encoded date                             : UTC 2011-08-05 00:43:53
  10. Writing application                      : mkvmerge v3.4.0 ('Rapunzel') built on May 15 2010 09:38:20
  11. Writing library                          : libebml v0.8.0 + libmatroska v0.9.0
  12.  
  13. Video
  14. ID                                       : 1
  15. Format                                   : AVC
  16. Format/Info                              : Advanced Video Codec
  17. Format profile                           : High@L4.1
  18. Format settings                          : CABAC / 4 Ref Frames
  19. Format settings, CABAC                   : Yes
  20. Format settings, Reference frames        : 4 frames
  21. Codec ID                                 : V_MPEG4/ISO/AVC
  22. Duration                                 : 1 h 34 min
  23. Bit rate                                 : 10.5 Mb/s
  24. Width                                    : 1 918 pixels
  25. Height                                   : 1 038 pixels
  26. Display aspect ratio                     : 1.85:1
  27. Frame rate mode                          : Constant
  28. Frame rate                               : 23.976 (24000/1001) FPS
  29. Color space                              : YUV
  30. Chroma subsampling                       : 4:2:0
  31. Bit depth                                : 8 bits
  32. Scan type                                : Progressive
  33. Bits/(Pixel*Frame)                       : 0.221
  34. Stream size                              : 6.79 GiB (85%)
  35. Title                                    : The Boy In The Striped Pajamas (2008)
  36. Writing library                          : x264 core 115 r2008kMod 4c552d8
  37. Encoding settings                        : cabac=1 / ref=4 / deblock=1:-3:-3 / analyse=0x3:0x133 / me=umh / subme=9 / psy=1 / fade_compensate=0.00 / psy_rd=1.00:0.00 / mixed_ref=1 / me_range=32 / chroma_me=1 / trellis=2 / 8x8dct=1 / cqm=0 / deadzone=21,11 / fast_pskip=0 / chroma_qp_offset=-2 / threads=6 / sliced_threads=0 / nr=0 / decimate=0 / interlaced=0 / bluray_compat=0 / constrained_intra=0 / bframes=6 / b_pyramid=2 / b_adapt=2 / b_bias=0 / direct=3 / weightb=1 / open_gop=0 / weightp=2 / keyint=250 / keyint_min=23 / scenecut=40 / intra_refresh=0 / rc=2pass / mbtree=0 / bitrate=10530 / ratetol=1.0 / qcomp=0.70 / qpmin=10 / qpmax=51 / qpstep=4 / cplxblur=20.0 / qblur=0.5 / ip_ratio=1.30 / pb_ratio=1.20 / aq=1:0.80
  38. Language                                 : English
  39. Default                                  : No
  40. Forced                                   : No
  41.  
  42. Audio
  43. ID                                       : 2
  44. Format                                   : DTS
  45. Format/Info                              : Digital Theater Systems
  46. Codec ID                                 : A_DTS
  47. Duration                                 : 1 h 34 min
  48. Bit rate mode                            : Constant
  49. Bit rate                                 : 1 509 kb/s
  50. Channel(s)                               : 6 channels
  51. Channel layout                           : C L R Ls Rs LFE
  52. Sampling rate                            : 48.0 kHz
  53. Frame rate                               : 93.750 FPS (512 SPF)
  54. Bit depth                                : 24 bits
  55. Compression mode                         : Lossy
  56. Stream size                              : 1 020 MiB (13%)
  57. Language                                 : English
  58. Default                                  : Yes
  59. Forced                                   : No
  60.  
  61. Text #1
  62. ID                                       : 3
  63. Format                                   : UTF-8
  64. Codec ID                                 : S_TEXT/UTF8
  65. Codec ID/Info                            : UTF-8 Plain Text
  66. Title                                    : English
  67. Language                                 : English
  68. Default                                  : No
  69. Forced                                   : No
  70.  
  71. Text #2
  72. ID                                       : 4
  73. Format                                   : UTF-8
  74. Codec ID                                 : S_TEXT/UTF8
  75. Codec ID/Info                            : UTF-8 Plain Text
  76. Title                                    : English-SDH
  77. Language                                 : English
  78. Default                                  : No
  79. Forced                                   : No
  80.  
  81. Menu
  82. 00:00:00.000                             : en:Chapter 1
  83. 00:05:00.000                             : en:Chapter 2
  84. 00:10:00.000                             : en:Chapter 3
  85. 00:15:00.000                             : en:Chapter 4
  86. 00:20:00.000                             : en:Chapter 5
  87. 00:25:00.000                             : en:Chapter 6
  88. 00:30:00.000                             : en:Chapter 7
  89. 00:35:00.000                             : en:Chapter 8
  90. 00:40:00.000                             : en:Chapter 9
  91. 00:45:00.000                             : en:Chapter 10
  92. 00:50:00.000                             : en:Chapter 11
  93. 00:55:00.000                             : en:Chapter 12
  94. 01:00:00.000                             : en:Chapter 13
  95. 01:05:00.000                             : en:Chapter 14
  96. 01:10:00.000                             : en:Chapter 15
  97. 01:15:00.000                             : en:Chapter 16
  98. 01:20:00.000                             : en:Chapter 17
  99. 01:25:00.000                             : en:Chapter 18
  100. 01:30:00.000                             : en:Chapter 19
RAW Paste Data
We use cookies for various purposes including analytics. By continuing to use Pastebin, you agree to our use of cookies as described in the Cookies Policy. OK, I Understand
 
Top