Guest User

Untitled

a guest
Jan 14th, 2020
81
Never
Not a member of Pastebin yet? Sign Up, it unlocks many cool features!
  1. General
  2. Unique ID : 181185561151089059262503462733313904308 (0x884F11DC85A1E6F0BDC33291F10A8EB4)
  3. Complete name : F:ФильмыМои релизы на TeamHDMr.Nice.Guy.1997.720p.BluRay.7xRus.2xUkr.Eng.TeamHD-Атлас31.mkv
  4. Format : Matroska
  5. Format version : Version 2
  6. File size : 10.1 GiB
  7. Duration : 1h 28mn
  8. Overall bit rate : 16.3 Mbps
  9. Encoded date : UTC 2020-01-14 08:18:42
  10. Writing application : mkvmerge v7.8.0 ('River Man') 32bit built on Apr 3 2015 12:11:22
  11. Writing library : libebml v1.3.1 + libmatroska v1.4.2
  12.  
  13. Video
  14. ID : 1
  15. Format : AVC
  16. Format/Info : Advanced Video Codec
  17. Format profile : High@L4.1
  18. Format settings, CABAC : Yes
  19. Format settings, ReFrames : 12 frames
  20. Codec ID : V_MPEG4/ISO/AVC
  21. Duration : 1h 28mn
  22. Bit rate : 8 888 Kbps
  23. Width : 1 280 pixels
  24. Height : 528 pixels
  25. Display aspect ratio : 2.40:1
  26. Frame rate mode : Constant
  27. Frame rate : 23.976 fps
  28. Color space : YUV
  29. Chroma subsampling : 4:2:0
  30. Bit depth : 8 bits
  31. Scan type : Progressive
  32. Bits/(Pixel*Frame) : 0.549
  33. Stream size : 5.28 GiB (52%)
  34. Title : Release for TeamHD by Атлас31
  35. Writing library : x264 core 157 r2969 d4099dd
  36. Encoding settings : cabac=1 / ref=12 / deblock=1:-3:-3 / analyse=0x3:0x133 / me=umh / subme=11 / psy=1 / psy_rd=1.00:0.15 / mixed_ref=1 / me_range=32 / chroma_me=1 / trellis=2 / 8x8dct=1 / cqm=0 / deadzone=21,11 / fast_pskip=1 / chroma_qp_offset=-3 / threads=3 / lookahead_threads=1 / sliced_threads=0 / nr=0 / decimate=1 / interlaced=0 / bluray_compat=0 / constrained_intra=0 / bframes=10 / b_pyramid=2 / b_adapt=2 / b_bias=0 / direct=3 / weightb=1 / open_gop=0 / weightp=2 / keyint=240 / keyint_min=24 / scenecut=40 / intra_refresh=0 / rc_lookahead=60 / rc=2pass / mbtree=1 / bitrate=8888 / ratetol=1.0 / qcomp=0.60 / qpmin=0 / qpmax=69 / qpstep=4 / cplxblur=20.0 / qblur=0.5 / ip_ratio=1.40 / aq=1:1.00
  37. Language : English
  38. Default : Yes
  39. Forced : No
  40.  
  41. Audio #1
  42. ID : 2
  43. Format : AC-3
  44. Format/Info : Audio Coding 3
  45. Mode extension : CM (complete main)
  46. Format settings, Endianness : Big
  47. Codec ID : A_AC3
  48. Duration : 1h 28mn
  49. Bit rate mode : Constant
  50. Bit rate : 384 Kbps
  51. Channel(s) : 6 channels
  52. Channel positions : Front: L C R, Side: L R, LFE
  53. Sampling rate : 48.0 KHz
  54. Bit depth : 16 bits
  55. Compression mode : Lossy
  56. Stream size : 242 MiB (2%)
  57. Title : MVO (West)
  58. Language : Russian
  59. Default : Yes
  60. Forced : No
  61.  
  62. Audio #2
  63. ID : 3
  64. Format : AC-3
  65. Format/Info : Audio Coding 3
  66. Mode extension : CM (complete main)
  67. Format settings, Endianness : Big
  68. Codec ID : A_AC3
  69. Duration : 1h 28mn
  70. Bit rate mode : Constant
  71. Bit rate : 224 Kbps
  72. Channel(s) : 2 channels
  73. Channel positions : Front: L R
  74. Sampling rate : 48.0 KHz
  75. Bit depth : 16 bits
  76. Compression mode : Lossy
  77. Stream size : 141 MiB (1%)
  78. Title : MVO (ТНТ)
  79. Language : Russian
  80. Default : No
  81. Forced : No
  82.  
  83. Audio #3
  84. ID : 4
  85. Format : AC-3
  86. Format/Info : Audio Coding 3
  87. Mode extension : CM (complete main)
  88. Format settings, Endianness : Big
  89. Codec ID : A_AC3
  90. Duration : 1h 28mn
  91. Bit rate mode : Constant
  92. Bit rate : 224 Kbps
  93. Channel(s) : 2 channels
  94. Channel positions : Front: L R
  95. Sampling rate : 48.0 KHz
  96. Bit depth : 16 bits
  97. Compression mode : Lossy
  98. Stream size : 141 MiB (1%)
  99. Title : MVO (ОРТ)
  100. Language : Russian
  101. Default : No
  102. Forced : No
  103.  
  104. Audio #4
  105. ID : 5
  106. Format : AC-3
  107. Format/Info : Audio Coding 3
  108. Mode extension : CM (complete main)
  109. Format settings, Endianness : Big
  110. Codec ID : A_AC3
  111. Duration : 1h 28mn
  112. Bit rate mode : Constant
  113. Bit rate : 192 Kbps
  114. Channel(s) : 2 channels
  115. Channel positions : Front: L R
  116. Sampling rate : 48.0 KHz
  117. Bit depth : 16 bits
  118. Compression mode : Lossy
  119. Stream size : 121 MiB (1%)
  120. Title : DVO (НТВ)
  121. Language : Russian
  122. Default : No
  123. Forced : No
  124.  
  125. Audio #5
  126. ID : 6
  127. Format : DTS
  128. Format/Info : Digital Theater Systems
  129. Mode : 16
  130. Format settings, Endianness : Big
  131. Codec ID : A_DTS
  132. Duration : 1h 28mn
  133. Bit rate mode : Constant
  134. Bit rate : 1 509 Kbps
  135. Channel(s) : 2 channels
  136. Channel positions : Front: L R
  137. Sampling rate : 48.0 KHz
  138. Bit depth : 16 bits
  139. Compression mode : Lossy
  140. Stream size : 952 MiB (9%)
  141. Title : DVO (Garsu Pasaulis)
  142. Language : Russian
  143. Default : No
  144. Forced : No
  145.  
  146. Audio #6
  147. ID : 7
  148. Format : DTS
  149. Format/Info : Digital Theater Systems
  150. Mode : 16
  151. Format settings, Endianness : Big
  152. Codec ID : A_DTS
  153. Duration : 1h 28mn
  154. Bit rate mode : Constant
  155. Bit rate : 1 509 Kbps
  156. Channel(s) : 6 channels
  157. Channel positions : Front: L C R, Side: L R, LFE
  158. Sampling rate : 48.0 KHz
  159. Bit depth : 24 bits
  160. Compression mode : Lossy
  161. Stream size : 952 MiB (9%)
  162. Title : AVO (Андрей Гаврилов)
  163. Language : Russian
  164. Default : No
  165. Forced : No
  166.  
  167. Audio #7
  168. ID : 8
  169. Format : DTS
  170. Format/Info : Digital Theater Systems
  171. Mode : 16
  172. Format settings, Endianness : Big
  173. Codec ID : A_DTS
  174. Duration : 1h 28mn
  175. Bit rate mode : Constant
  176. Bit rate : 1 509 Kbps
  177. Channel(s) : 6 channels
  178. Channel positions : Front: L C R, Side: L R, LFE
  179. Sampling rate : 48.0 KHz
  180. Bit depth : 24 bits
  181. Compression mode : Lossy
  182. Stream size : 952 MiB (9%)
  183. Title : AVO (Юрий Живов)
  184. Language : Russian
  185. Default : No
  186. Forced : No
  187.  
  188. Audio #8
  189. ID : 9
  190. Format : AC-3
  191. Format/Info : Audio Coding 3
  192. Mode extension : CM (complete main)
  193. Format settings, Endianness : Big
  194. Codec ID : A_AC3
  195. Duration : 1h 28mn
  196. Bit rate mode : Constant
  197. Bit rate : 192 Kbps
  198. Channel(s) : 2 channels
  199. Channel positions : Front: L R
  200. Sampling rate : 48.0 KHz
  201. Bit depth : 16 bits
  202. Compression mode : Lossy
  203. Stream size : 121 MiB (1%)
  204. Title : MVO (IНТЕР)
  205. Language : Ukrainian
  206. Default : No
  207. Forced : No
  208.  
  209. Audio #9
  210. ID : 10
  211. Format : AC-3
  212. Format/Info : Audio Coding 3
  213. Mode extension : CM (complete main)
  214. Format settings, Endianness : Big
  215. Codec ID : A_AC3
  216. Duration : 1h 28mn
  217. Bit rate mode : Constant
  218. Bit rate : 192 Kbps
  219. Channel(s) : 2 channels
  220. Channel positions : Front: L R
  221. Sampling rate : 48.0 KHz
  222. Bit depth : 16 bits
  223. Compression mode : Lossy
  224. Stream size : 121 MiB (1%)
  225. Title : DVO (ICTV)
  226. Language : Ukrainian
  227. Default : No
  228. Forced : No
  229.  
  230. Audio #10
  231. ID : 11
  232. Format : DTS
  233. Format/Info : Digital Theater Systems
  234. Mode : 16
  235. Format settings, Endianness : Big
  236. Codec ID : A_DTS
  237. Duration : 1h 28mn
  238. Bit rate mode : Constant
  239. Bit rate : 1 509 Kbps
  240. Channel(s) : 6 channels
  241. Channel positions : Front: L C R, Side: L R, LFE
  242. Sampling rate : 48.0 KHz
  243. Bit depth : 24 bits
  244. Compression mode : Lossy
  245. Stream size : 952 MiB (9%)
  246. Title : Original
  247. Language : English
  248. Default : No
  249. Forced : No
  250.  
  251. Text #1
  252. ID : 12
  253. Format : UTF-8
  254. Codec ID : S_TEXT/UTF8
  255. Codec ID/Info : UTF-8 Plain Text
  256. Language : Russian
  257. Default : No
  258. Forced : No
  259.  
  260. Text #2
  261. ID : 13
  262. Format : UTF-8
  263. Codec ID : S_TEXT/UTF8
  264. Codec ID/Info : UTF-8 Plain Text
  265. Language : English
  266. Default : No
  267. Forced : No
  268.  
  269. Menu
  270. 00:00:00.000 : en:00:00:00.000
  271. 00:06:48.155 : en:00:06:48.155
  272. 00:15:28.927 : en:00:15:28.927
  273. 00:22:49.409 : en:00:22:49.409
  274. 00:31:39.021 : en:00:31:39.021
  275. 00:41:01.166 : en:00:41:01.166
  276. 00:49:38.724 : en:00:49:38.724
  277. 00:59:08.418 : en:00:59:08.418
  278. 01:06:36.323 : en:01:06:36.323
  279. 01:13:52.594 : en:01:13:52.594
  280. 01:23:36.845 : en:01:23:36.845
  281. 01:28:13.287 : en:01:28:13.287
RAW Paste Data