Secasa

Untitled

Apr 30th, 2015
22
Never
Not a member of Pastebin yet? Sign Up, it unlocks many cool features!
  1. Format : Matroska
  2. Format version : Version 4 / Version 2
  3. File size : 8.18 GiB
  4. Duration : 1h 19mn
  5. Overall bit rate : 14.7 Mbps
  6. Encoded date : UTC 2015-04-26 15:30:35
  7. Writing application : mkvmerge v6.3.0 ('You can't stop me!') built on Jun 28 2013 20:09:41
  8. Writing library : libebml v1.3.0 + libmatroska v1.4.0
  9.  
  10. Video
  11. ID : 1
  12. Format : AVC
  13. Format/Info : Advanced Video Codec
  14. Format profile : High@L4.0
  15. Format settings, CABAC : Yes
  16. Format settings, ReFrames : 3 frames
  17. Codec ID : V_MPEG4/ISO/AVC
  18. Duration : 1h 19mn
  19. Bit rate : 14.0 Mbps
  20. Width : 1 920 pixels
  21. Height : 1 080 pixels
  22. Display aspect ratio : 16:9
  23. Frame rate : 23.976 fps
  24. Color space : YUV
  25. Chroma subsampling : 4:2:0
  26. Bit depth : 8 bits
  27. Scan type : Progressive
  28. Bits/(Pixel*Frame) : 0.282
  29. Stream size : 7.81 GiB (95%)
  30. Writing library : x264 core 130 r2273 b3065e6
  31. Encoding settings : cabac=1 / ref=4 / deblock=1:-2:-2 / analyse=0x3:0x113 / me=hex / subme=9 / psy=1 / psy_rd=1,00:0,15 / mixed_ref=1 / me_range=16 / chroma_me=1 / trellis=2 / 8x8dct=1 / cqm=0 / deadzone=21,11 / fast_pskip=1 / chroma_qp_offset=-3 / threads=12 / lookahead_threads=1 / sliced_threads=0 / nr=0 / decimate=1 / interlaced=0 / bluray_compat=0 / constrained_intra=0 / bframes=4 / b_pyramid=1 / b_adapt=2 / b_bias=0 / direct=1 / weightb=1 / open_gop=0 / weightp=1 / keyint=240 / keyint_min=24 / scenecut=40 / intra_refresh=0 / rc_lookahead=40 / rc=crf / mbtree=1 / crf=21,0 / qcomp=0,60 / qpmin=0 / qpmax=69 / qpstep=4 / ip_ratio=1,40 / aq=1:1,00
  32. Language : English
  33. Default : Yes
  34. Forced : No
  35. Color primaries : BT.709-5, BT.1361, IEC 61966-2-4, SMPTE RP177
  36. Transfer characteristics : BT.709-5, BT.1361
  37. Matrix coefficients : BT.709-5, BT.1361, IEC 61966-2-4 709, SMPTE RP177
  38.  
  39. Audio #1
  40. ID : 2
  41. Format : AC-3
  42. Format/Info : Audio Coding 3
  43. Mode extension : CM (complete main)
  44. Codec ID : A_AC3
  45. Duration : 1h 19mn
  46. Bit rate mode : Constant
  47. Bit rate : 192 Kbps
  48. Channel(s) : 2 channels
  49. Channel positions : Front: L R
  50. Sampling rate : 48.0 KHz
  51. Bit depth : 16 bits
  52. Compression mode : Lossy
  53. Stream size : 109 MiB (1%)
  54. Title : AC3 Ingles
  55. Language : English
  56. Default : Yes
  57. Forced : No
  58.  
  59. Audio #2
  60. ID : 3
  61. Format : AC-3
  62. Format/Info : Audio Coding 3
  63. Mode extension : CM (complete main)
  64. Codec ID : A_AC3
  65. Duration : 1h 19mn
  66. Bit rate mode : Constant
  67. Bit rate : 192 Kbps
  68. Channel(s) : 2 channels
  69. Channel positions : Front: L R
  70. Sampling rate : 48.0 KHz
  71. Bit depth : 16 bits
  72. Compression mode : Lossy
  73. Stream size : 109 MiB (1%)
  74. Title : AC3 Castellano
  75. Language : Spanish
  76. Default : No
  77. Forced : No
  78.  
  79. Text #1
  80. ID : 4
  81. Format : PGS
  82. Muxing mode : zlib
  83. Codec ID : S_HDMV/PGS
  84. Codec ID/Info : The same subtitle format used on BDs/HD-DVDs
  85. Title : Castellano
  86. Language : Spanish
  87. Default : No
  88. Forced : No
  89.  
  90. Text #2
  91. ID : 5
  92. Format : PGS
  93. Muxing mode : zlib
  94. Codec ID : S_HDMV/PGS
  95. Codec ID/Info : The same subtitle format used on BDs/HD-DVDs
  96. Title : Portugues
  97. Language : Portuguese
  98. Default : No
  99. Forced : No
RAW Paste Data