TolstiyMob

Katanagatari Vol.9 Oto Nokogir

Nov 12th, 2011
152
Never
Not a member of Pastebin yet? Sign Up, it unlocks many cool features!
  1. Disc Title: BDROM
  2. Disc Size: 16 976 380 974 bytes
  3. Protection: AACS
  4. BD-Java: No
  5. BDInfo: 0.5.6
  6.  
  7. Notes:
  8.  
  9. BDINFO HOME:
  10. Cinema Squid
  11. http://www.cinemasquid.com/blu-ray/tools/bdinfo
  12.  
  13. INCLUDES FORUMS REPORT FOR:
  14. AVS Forum Blu-ray Audio and Video Specifications Thread
  15. http://www.avsforum.com/avs-vb/showthread.php?t=1155731
  16.  
  17.  
  18. ********************
  19. PLAYLIST: 00000.MPLS
  20. ********************
  21.  
  22. <--- BEGIN FORUMS PASTE --->
  23. [code]
  24. Total Video
  25. Title Codec Length Movie Size Disc Size Bitrate Bitrate Main Audio Track Secondary Audio Track
  26. ----- ------ ------- -------------- -------------- ------- ------- ------------------ ---------------------
  27. 00000.MPLS AVC 0:49:50 15 763 537 920 16 976 380 974 42,18 37,99 LPCM 2.0 2304Kbps (48kHz/24-bit)
  28. [/code]
  29.  
  30. [code]
  31.  
  32. DISC INFO:
  33.  
  34. Disc Title: BDROM
  35. Disc Size: 16 976 380 974 bytes
  36. Protection: AACS
  37. BD-Java: No
  38. BDInfo: 0.5.6
  39.  
  40. PLAYLIST REPORT:
  41.  
  42. Name: 00000.MPLS
  43. Length: 0:49:50 (h:m:s)
  44. Size: 15 763 537 920 bytes
  45. Total Bitrate: 42,18 Mbps
  46.  
  47. VIDEO:
  48.  
  49. Codec Bitrate Description
  50. ----- ------- -----------
  51. MPEG-4 AVC Video 37994 kbps 1080p / 23,976 fps / 16:9 / High Profile 4.1
  52.  
  53. AUDIO:
  54.  
  55. Codec Language Bitrate Description
  56. ----- -------- ------- -----------
  57. LPCM Audio Japanese 2304 kbps 2.0 / 48 kHz / 2304 kbps / 24-bit
  58.  
  59. FILES:
  60.  
  61. Name Time In Length Size Total Bitrate
  62. ---- ------- ------ ---- -------------
  63. 00000.M2TS 0:00:00.000 0:49:50.028 15 763 537 920 42 176
  64.  
  65. CHAPTERS:
  66.  
  67. Number Time In Length Avg Video Rate Max 1-Sec Rate Max 1-Sec Time Max 5-Sec Rate Max 5-Sec Time Max 10Sec Rate Max 10Sec Time Avg Frame Size Max Frame Size Max Frame Time
  68. ------ ------- ------ -------------- -------------- -------------- -------------- -------------- -------------- -------------- -------------- -------------- --------------
  69. 1 0:00:00.000 0:00:57.056 37 498 kbps 47 558 kbps 00:00:25.400 40 426 kbps 00:00:05.130 39 321 kbps 00:00:24.941 195 355 bytes 639 519 bytes 00:00:27.986
  70. 2 0:00:57.056 0:01:29.964 38 497 kbps 43 364 kbps 00:01:58.117 40 146 kbps 00:01:15.325 39 965 kbps 00:01:12.405 200 705 bytes 640 511 bytes 00:01:59.702
  71. 3 0:02:27.021 0:16:59.018 38 522 kbps 44 288 kbps 00:18:56.260 40 364 kbps 00:15:09.408 40 030 kbps 00:07:30.908 200 837 bytes 640 957 bytes 00:11:38.197
  72. 4 0:19:26.039 0:05:43.968 37 342 kbps 43 139 kbps 00:20:01.283 40 270 kbps 00:20:20.344 40 000 kbps 00:21:14.815 194 682 bytes 639 296 bytes 00:20:18.300
  73. 5 0:25:10.008 0:12:36.964 38 110 kbps 46 347 kbps 00:32:56.057 40 292 kbps 00:29:48.828 39 961 kbps 00:30:17.148 198 687 bytes 640 991 bytes 00:30:04.260
  74. 6 0:37:46.973 0:09:53.968 37 977 kbps 44 697 kbps 00:44:45.057 40 547 kbps 00:45:24.596 40 137 kbps 00:45:19.591 197 993 bytes 641 030 bytes 00:42:16.283
  75. 7 0:47:40.941 0:01:29.964 38 666 kbps 41 553 kbps 00:49:08.987 39 901 kbps 00:48:03.130 39 429 kbps 00:47:59.501 201 587 bytes 640 276 bytes 00:48:04.965
  76. 8 0:49:10.906 0:00:37.287 27 183 kbps 42 105 kbps 00:49:31.593 39 835 kbps 00:49:26.213 39 397 kbps 00:49:25.921 141 719 bytes 606 214 bytes 00:49:23.126
  77. 9 0:49:48.193 0:00:01.835 2 001 kbps 3 644 kbps 00:49:48.986 0 kbps 00:00:00.000 0 kbps 00:00:00.000 10 673 bytes 208 334 bytes 00:49:49.987
  78.  
  79. STREAM DIAGNOSTICS:
  80.  
  81. File PID Type Codec Language Seconds Bitrate Bytes Packets
  82. ---- --- ---- ----- -------- -------------- -------------- ------------- -----
  83. 00000.M2TS 4113 (0x1011) 0x1B AVC 2989,862 37 996 14 200 337 540 77 217 524
  84. 00000.M2TS 4352 (0x1100) 0x80 LPCM jpn (Japanese) 2989,862 2 311 863 520 664 4 784 048
  85.  
  86. [/code]
  87. <---- END FORUMS PASTE ---->
  88.  
  89. QUICK SUMMARY:
  90.  
  91. Disc Title: BDROM
  92. Disc Size: 16 976 380 974 bytes
  93. Protection: AACS
  94. BD-Java: No
  95. Playlist: 00000.MPLS
  96. Size: 15 763 537 920 bytes
  97. Length: 0:49:50
  98. Total Bitrate: 42,18 Mbps
  99. Video: MPEG-4 AVC Video / 37994 kbps / 1080p / 23,976 fps / 16:9 / High Profile 4.1
  100. Audio: Japanese / LPCM Audio / 2.0 / 48 kHz / 2304 kbps / 24-bit
  101.  
  102.  
  103. ********************
  104. PLAYLIST: 00002.MPLS
  105. ********************
  106.  
  107. <--- BEGIN FORUMS PASTE --->
  108. [code]
  109. Total Video
  110. Title Codec Length Movie Size Disc Size Bitrate Bitrate Main Audio Track Secondary Audio Track
  111. ----- ------ ------- -------------- -------------- ------- ------- ------------------ ---------------------
  112. 00002.MPLS AVC 0:00:38 66 680 832 16 976 380 974 14,02 11,60 LPCM 2.0 1536Kbps (48kHz/16-bit)
  113. [/code]
  114.  
  115. [code]
  116.  
  117. DISC INFO:
  118.  
  119. Disc Title: BDROM
  120. Disc Size: 16 976 380 974 bytes
  121. Protection: AACS
  122. BD-Java: No
  123. BDInfo: 0.5.6
  124.  
  125. PLAYLIST REPORT:
  126.  
  127. Name: 00002.MPLS
  128. Length: 0:00:38 (h:m:s)
  129. Size: 66 680 832 bytes
  130. Total Bitrate: 14,02 Mbps
  131.  
  132. VIDEO:
  133.  
  134. Codec Bitrate Description
  135. ----- ------- -----------
  136. MPEG-4 AVC Video 11601 kbps 1080i / 29,970 fps / 16:9 / High Profile 4.1
  137.  
  138. AUDIO:
  139.  
  140. Codec Language Bitrate Description
  141. ----- -------- ------- -----------
  142. LPCM Audio Japanese 1536 kbps 2.0 / 48 kHz / 1536 kbps / 16-bit
  143.  
  144. FILES:
  145.  
  146. Name Time In Length Size Total Bitrate
  147. ---- ------- ------ ---- -------------
  148. 00003.M2TS 0:00:00.000 0:00:22.021 23 218 176 8 435
  149. 00002.M2TS 0:00:22.021 0:00:16.015 43 462 656 21 710
  150.  
  151. CHAPTERS:
  152.  
  153. Number Time In Length Avg Video Rate Max 1-Sec Rate Max 1-Sec Time Max 5-Sec Rate Max 5-Sec Time Max 10Sec Rate Max 10Sec Time Avg Frame Size Max Frame Size Max Frame Time
  154. ------ ------- ------ -------------- -------------- -------------- -------------- -------------- -------------- -------------- -------------- -------------- --------------
  155. 1 0:00:00.000 0:00:38.037 11 601 kbps 46 121 kbps 00:00:31.564 32 526 kbps 00:00:28.495 27 952 kbps 00:00:23.523 48 385 bytes 489 494 bytes 00:00:03.002
  156.  
  157. STREAM DIAGNOSTICS:
  158.  
  159. File PID Type Codec Language Seconds Bitrate Bytes Packets
  160. ---- --- ---- ----- -------- -------------- -------------- ------------- -----
  161. 00003.M2TS 4113 (0x1011) 0x1B AVC 21,889 6 281 17 184 086 93 744
  162. 00003.M2TS 4352 (0x1100) 0x80 LPCM jpn (Japanese) 21,889 1 552 4 246 420 26 430
  163. 00002.M2TS 4113 (0x1011) 0x1B AVC 15,883 19 128 37 974 761 206 633
  164. 00002.M2TS 4352 (0x1100) 0x80 LPCM jpn (Japanese) 15,883 1 555 3 087 692 19 218
  165.  
  166. [/code]
  167. <---- END FORUMS PASTE ---->
  168.  
  169. QUICK SUMMARY:
  170.  
  171. Disc Title: BDROM
  172. Disc Size: 16 976 380 974 bytes
  173. Protection: AACS
  174. BD-Java: No
  175. Playlist: 00002.MPLS
  176. Size: 66 680 832 bytes
  177. Length: 0:00:38
  178. Total Bitrate: 14,02 Mbps
  179. Video: MPEG-4 AVC Video / 11601 kbps / 1080i / 29,970 fps / 16:9 / High Profile 4.1
  180. Audio: Japanese / LPCM Audio / 2.0 / 48 kHz / 1536 kbps / 16-bit
  181.  
RAW Paste Data