Advertisement
Guest User

Activity Log

a guest
Jan 27th, 2022
14
Never
Not a member of Pastebin yet? Sign Up, it unlocks many cool features!
  1. HandBrake 1.5.1 (2022011000)
  2. OS: Microsoft Windows NT 10.0.19041.0
  3. CPU: AMD Ryzen 9 5900X 12-Core Processor
  4. Ram: 32681 MB,
  5. GPU Information:
  6. NVIDIA GeForce GTX 1080 Ti - 30.0.14.9729
  7. Screen: 2048x1152
  8. Temp Dir: C:\Users\Sketchy\AppData\Local\Temp\
  9. Install Dir: C:\Program Files\HandBrake\
  10. Data Dir: C:\Users\Sketchy\AppData\Roaming\HandBrake
  11.  
  12. -------------------------------------------
  13.  
  14. # Starting Scan ...
  15.  
  16. [14:55:05] hb_init: starting libhb thread
  17. [14:55:05] CPU: AMD Ryzen 9 5900X 12-Core Processor
  18. [14:55:05] - logical processor count: 24
  19. [14:55:05] Intel Quick Sync Video support: no
  20. [14:55:05] hb_scan: path=D:\Downloads\Ancient Aliens S17\Season 17\Ancient Aliens S17E01 - The Lost City of Peru.mkv, title_index=0
  21. udfread ERROR: ECMA 167 Volume Recognition failed
  22. src/libbluray/disc/disc.c:333: failed opening UDF image D:\Downloads\Ancient Aliens S17\Season 17\Ancient Aliens S17E01 - The Lost City of Peru.mkv
  23. src/libbluray/disc/disc.c:437: error opening file BDMV\index.bdmv
  24. src/libbluray/disc/disc.c:437: error opening file BDMV\BACKUP\index.bdmv
  25. src/libbluray/bluray.c:2646: nav_get_title_list(D:\Downloads\Ancient Aliens S17\Season 17\Ancient Aliens S17E01 - The Lost City of Peru.mkv\) failed
  26. [14:55:05] bd: not a bd - trying as a stream/file instead
  27. libdvdread: DVDOpenFileUDF:UDFFindFile /VIDEO_TS/VIDEO_TS.IFO failed
  28. libdvdnav: vm: vm: failed to read VIDEO_TS.IFO
  29. [14:55:05] dvd: not a dvd - trying as a stream/file instead
  30. Input #0, matroska,webm, from 'D:\Downloads\Ancient Aliens S17\Season 17\Ancient Aliens S17E01 - The Lost City of Peru.mkv':
  31. Metadata:
  32. ENCODER : Lavf58.18.101
  33. Duration: 00:41:05.84, start: 0.000000, bitrate: 8344 kb/s
  34. Stream #0:0: Video: h264 (Main), yuv420p(progressive), 1920x1080 [SAR 1:1 DAR 16:9], 23.98 fps, 23.98 tbr, 1k tbn, 59.94 tbc (default)
  35. Metadata:
  36. DURATION : 00:41:05.838000000
  37. Stream #0:1(eng): Audio: aac (LC), 48000 Hz, stereo, fltp (default)
  38. Metadata:
  39. title : English
  40. DURATION : 00:41:05.834000000
  41. [14:55:05] scan: decoding previews for title 1
  42. [14:55:05] scan: audio 0x1: aac, rate=48000Hz, bitrate=1 English (AAC LC) (2.0 ch)
  43. [14:55:05] scan: 10 previews, 1920x1080, 23.976 fps, autocrop = 0/0/0/0, aspect 16:9, PAR 1:1, color profile: 1-1-1, chroma location: left
  44. [14:55:05] libhb: scan thread found 1 valid title(s)
  45.  
  46. # Scan Finished ...
  47.  
  48.  
Advertisement
RAW Paste Data Copied
Advertisement