SHARE
TWEET

Untitled

a guest May 5th, 2014 146 Never
Not a member of Pastebin yet? Sign Up, it unlocks many cool features!
  1. frame=26378 fps= 25 q=30.0 size=  816580kB time=00:17:35.10 bitrate=6340.1kbits/frame=26391 fps= 25 q=30.0 size=  817046kB time=00:17:35.60 bitrate=6340.7kbits/[video4linux2,v4l2 @ 0xc87440] The v4l2 frame is 414720 bytes, but 829440 bytes are expected
  2. frame=26393 fps= 25 q=30.0 size=  817118kB time=00:17:36.12 bitrate=6338.1kbits/frame=26393 fps= 25 q=30.0 size=  817118kB time=00:17:36.62 bitrate=6335.1kbits/frame=26393 fps= 25 q=30.0 size=  817118kB time=00:17:37.11 bitrate=6332.2kbits/frame=26393 fps= 25 q=30.0 size=  817118kB time=00:17:37.64 bitrate=6329.0kbits/frame=26393 fps= 25 q=30.0 size=  817118kB time=00:17:38.13 bitrate=6326.0kbits/frame=26393 fps= 25 q=30.0 size=  817118kB time=00:17:38.66 bitrate=6322.9kbits/frame=26393 fps= 25 q=30.0 size=  817118kB time=00:17:39.13 bitrate=6320.1kbits/frame=26393 fps= 25 q=30.0 size=  817118kB time=00:17:39.65 bitrate=6317.0kbits/frame=26393 fps= 25 q=30.0 size=  817118kB time=00:17:40.15 bitrate=6314.0kbits/frame=26393 fps= 25 q=30.0 size=  817118kB time=00:17:40.64 bitrate=6311.1kbits/
RAW Paste Data
We use cookies for various purposes including analytics. By continuing to use Pastebin, you agree to our use of cookies as described in the Cookies Policy. OK, I Understand
 
Top