Guest User

rs

a guest
Aug 12th, 2014
273
Never
Not a member of Pastebin yet? Sign Up, it unlocks many cool features!
  1. [2] pry(#<Video>)> system("ffmpeg -i #{full_source_path.shellescape} -pass 1 -passlogfile convert_#{id} #{options} -threads 0 -y /dev/null > #{logfile}")
  2. ffmpeg version 2.2.3 Copyright (c) 2000-2014 the FFmpeg developers
  3.   built on Jun 23 2014 13:46:15 with Apple LLVM version 5.1 (clang-503.0.40) (based on LLVM 3.4svn)
  4.   configuration: --prefix=/usr/local/Cellar/ffmpeg/2.2.3 --enable-shared --enable-pthreads --enable-gpl --enable-version3 --enable-nonfree --enable-hardcoded-tables --enable-avresample --enable-vda --cc=clang --host-cflags= --host-ldflags= --enable-libx264 --enable-libfaac --enable-libmp3lame --enable-libxvid --enable-libvorbis --enable-libvpx --enable-libfdk-aac
  5.   libavutil      52. 66.100 / 52. 66.100
  6.   libavcodec     55. 52.102 / 55. 52.102
  7.   libavformat    55. 33.100 / 55. 33.100
  8.   libavdevice    55. 10.100 / 55. 10.100
  9.   libavfilter     4.  2.100 /  4.  2.100
  10.   libavresample   1.  2.  0 /  1.  2.  0
  11.   libswscale      2.  5.102 /  2.  5.102
  12.   libswresample   0. 18.100 /  0. 18.100
  13.   libpostproc    52.  3.100 / 52.  3.100
  14. Input #0, mov,mp4,m4a,3gp,3g2,mj2, from '/Users/ruslan/Torrents//Приколи[tfile.ru]/angel wings.mp4':
  15.   Metadata:
  16.     major_brand     : 3gp4
  17.     minor_version   : 512
  18.     compatible_brands: 3gp4mp41
  19.     creation_time   : 2004-10-24 13:42:10
  20.   Duration: 00:00:16.82, start: 0.000000, bitrate: 102 kb/s
  21.     Stream #0:0(eng): Video: mpeg4 (Simple Profile) (mp4v / 0x7634706D), yuv420p, 176x144 [SAR 1:1 DAR 11:9], 88 kb/s, SAR 12:11 DAR 4:3, 6.12 fps, 12.25 tbr, 1k tbn, 1k tbc (default)
  22.     Metadata:
  23.       creation_time   : 2004-10-24 13:42:10
  24.       handler_name    : VideoHandler
  25.     Stream #0:1(eng): Audio: amr_nb (samr / 0x726D6173), 8000 Hz, mono, flt, 12 kb/s (default)
  26.     Metadata:
  27.       creation_time   : 2004-10-24 13:42:10
  28.       handler_name    : SoundHandler
  29.     Stream #0:2(eng): Data: none (mp4s / 0x7334706D), 0 kb/s (default)
  30.     Metadata:
  31.       creation_time   : 2004-10-24 13:42:10
  32.       handler_name    : SceneDescHandler
  33.     Stream #0:3(eng): Data: none (mp4s / 0x7334706D), 0 kb/s (default)
  34.     Metadata:
  35.       creation_time   : 2004-10-24 13:42:10
  36.       handler_name    : ODHandler
  37. [libvpx @ 0x7ff601023600] v1.3.0
  38. [libvorbis @ 0x7ff601023c00] encoder setup failed
  39. Output #0, webm, to '/dev/null':
  40.   Metadata:
  41.     major_brand     : 3gp4
  42.     minor_version   : 512
  43.     compatible_brands: 3gp4mp41
  44.     Stream #0:0(eng): Video: vp8 (libvpx), yuv420p, 640x360 [SAR 3:4 DAR 4:3], q=-1--1, pass 1, 360 kb/s, 90k tbn, 12.25 tbc (default)
  45.     Metadata:
  46.       creation_time   : 2004-10-24 13:42:10
  47.       handler_name    : VideoHandler
  48.     Stream #0:1(eng): Audio: vorbis, 8000 Hz, stereo, fltp, 96 kb/s (default)
  49.     Metadata:
  50.       creation_time   : 2004-10-24 13:42:10
  51.       handler_name    : SoundHandler
  52. Stream mapping:
  53.   Stream #0:0 -> #0:0 (mpeg4 -> libvpx)
  54.   Stream #0:1 -> #0:1 (amrnb -> libvorbis)
  55. Error while opening encoder for output stream #0:1 - maybe incorrect parameters such as bit_rate, rate, width or height
  56. Conversion failed!
  57. => false
RAW Paste Data