Guest User

Untitled

a guest
Oct 21st, 2019
90
Never
Not a member of Pastebin yet? Sign Up, it unlocks many cool features!
  1. General
  2. Unique ID : 190877820247602620867815982082379901385 (0x8F99BB2112FEA5031557340FF88269C9)
  3. Complete name : Blue.2018.1080p.WEB-DL.H264.AC3-EVO
  4. Format : Matroska
  5. Format version : Version 4
  6. File size : 4.37 GiB
  7. Duration : 1 h 51 min
  8. Overall bit rate : 5 598 kb/s
  9. Encoded date : UTC 2019-10-21 23:09:48
  10. Writing application : mkvmerge v35.0.0 ('All The Love In The World') 64-bit
  11. Writing library : libebml v1.3.9 + libmatroska v1.5.2
  12.  
  13. Video
  14. ID : 3
  15. Format : AVC
  16. Format/Info : Advanced Video Codec
  17. Format profile : High@L4
  18. Format settings : CABAC / 4 Ref Frames
  19. Format settings, CABAC : Yes
  20. Format settings, Reference frames : 4 frames
  21. Codec ID : V_MPEG4/ISO/AVC
  22. Duration : 1 h 51 min
  23. Bit rate : 5 212 kb/s
  24. Width : 1 920 pixels
  25. Height : 1 080 pixels
  26. Display aspect ratio : 16:9
  27. Frame rate mode : Constant
  28. Frame rate : 23.976 FPS
  29. Color space : YUV
  30. Chroma subsampling : 4:2:0
  31. Bit depth : 8 bits
  32. Scan type : Progressive
  33. Bits/(Pixel*Frame) : 0.105
  34. Stream size : 4.07 GiB (93%)
  35. Language : English
  36. Default : Yes
  37. Forced : No
  38. Color range : Limited
  39. Color primaries : BT.709
  40. Transfer characteristics : BT.709
  41. Matrix coefficients : BT.709
  42.  
  43. Audio
  44. ID : 2
  45. Format : AC-3
  46. Format/Info : Audio Coding 3
  47. Commercial name : Dolby Digital
  48. Codec ID : A_AC3
  49. Duration : 1 h 51 min
  50. Bit rate mode : Constant
  51. Bit rate : 384 kb/s
  52. Channel(s) : 6 channels
  53. Channel layout : L R C LFE Ls Rs
  54. Sampling rate : 48.0 kHz
  55. Frame rate : 31.250 FPS (1536 SPF)
  56. Bit depth : 16 bits
  57. Compression mode : Lossy
  58. Delay relative to video : -42 ms
  59. Stream size : 307 MiB (7%)
  60. Language : English
  61. Service kind : Complete Main
  62. Default : Yes
  63. Forced : No
  64.  
  65. Text
  66. ID : 1
  67. Format : UTF-8
  68. Codec ID : S_TEXT/UTF8
  69. Codec ID/Info : UTF-8 Plain Text
  70. Duration : 1 h 51 min
  71. Bit rate : 92 b/s
  72. Count of elements : 1570
  73. Stream size : 75.7 KiB (0%)
  74. Language : English
  75. Default : Yes
  76. Forced : No
  77.  
  78. Menu
  79. 00:00:00.000 : en:Chapter 1
  80. 00:11:54.714 : en:Chapter 2
  81. 00:16:59.018 : en:Chapter 3
  82. 00:30:18.817 : en:Chapter 4
  83. 00:40:29.427 : en:Chapter 5
  84. 00:51:08.064 : en:Chapter 6
  85. 01:01:36.692 : en:Chapter 7
  86. 01:10:44.238 : en:Chapter 8
  87. 01:19:38.771 : en:Chapter 9
  88. 01:30:03.394 : en:Chapter 10
  89. 01:40:33.022 : en:Chapter 11
  90. 01:49:03.532 : en:Chapter 12
RAW Paste Data