SHARE
TWEET

Untitled

a guest May 19th, 2018 189 Never
Not a member of Pastebin yet? Sign Up, it unlocks many cool features!
  1. REM COMMENT "RUTRACKER.ORG-vinyl rip by mihal-yakov-05"
  2. REM GENRE "Pop"
  3. REM DATE 1985
  4. REM LABEL "Tonpress KAW"
  5. CATALOG "SX-T_55"
  6. TITLE "Ulubione melodie"
  7. PERFORMER "Various"
  8. FILE "VA - Ulubione melodie.flac" WAVE
  9.   TRACK 01 AUDIO
  10.     TITLE "Inwazja z Plutona (G.Skawiński, W.Tkaczyk – M.Dutkiewicz)"
  11.     PERFORMER "Kombi"
  12.     INDEX 01 00:00:00
  13.   TRACK 02 AUDIO
  14.     TITLE "Ucieczka z tropiku (M. Biliński)"
  15.     PERFORMER "Marek Biliński"
  16.     INDEX 01 03:16:75
  17.   TRACK 03 AUDIO
  18.     TITLE "Najdłuźszy lot (P.Birula – M.Maliszewska)"
  19.     PERFORMER "Exodus"
  20.     INDEX 01 07:18:50
  21.   TRACK 04 AUDIO
  22.     TITLE "Na dobry los (J.Wojdak, A.Zygierewicz  - E.Zehenter-Spławińska)"
  23.     PERFORMER "Jan Wojdak I Wawele"
  24.     INDEX 01 13:13:60
  25.   TRACK 05 AUDIO
  26.     TITLE "W kaźdym moim śnie (D.Summer – G.Moroder, sl. pol. B.Olewicz)"
  27.     PERFORMER "Zdzisława Sośnicka"
  28.     INDEX 01 16:27:15
  29.   TRACK 06 AUDIO
  30.     TITLE "Adriatyk ocean gorący (G.Stróźniak – M.Ostrowska)"
  31.     PERFORMER "Lombard"
  32.     INDEX 01 21:37:00
  33.   TRACK 07 AUDIO
  34.     TITLE "Dom w dolinie mgieł (M. Biliński)"
  35.     PERFORMER "Marek Biliński"
  36.     INDEX 01 28:19:00
  37.   TRACK 08 AUDIO
  38.     TITLE "Wielka dama tańczy sama (J.Kukulski – M.Komorowska)"
  39.     PERFORMER "Anna Jantar"
  40.     INDEX 01 32:04:70
  41.   TRACK 09 AUDIO
  42.     TITLE "Czy to warto? (R.J.Scott, S.Woolfe – tekst polski B.Olewicz)"
  43.     PERFORMER "Zdzisława Sośnicka"
  44.     INDEX 01 35:48:75
  45.   TRACK 10 AUDIO
  46.     TITLE "Jesienny pan (R.Orłow – W.Młynarski)"
  47.     PERFORMER "Hanna Banaszak"
  48.     INDEX 01 39:25:75
  49.   TRACK 11 AUDIO
  50.     TITLE "Jej portret (W.Nahorny – J.Kofta)"
  51.     PERFORMER "Bogusław Mec"
  52.     INDEX 01 43:50:70
RAW Paste Data
We use cookies for various purposes including analytics. By continuing to use Pastebin, you agree to our use of cookies as described in the Cookies Policy. OK, I Understand
 
Top