Guest User

Deadly.Force.1983.1080p.BluRay.REMUX.AVC.DTS-HD.MA.2.0-EPSiLON

a guest
Jun 17th, 2019
36
Never
Not a member of Pastebin yet? Sign Up, it unlocks many cool features!
  1. General
  2. Complete name                            : Deadly.Force.1983.1080p.BluRay.REMUX.AVC.DTS-HD.MA.2.0-EPSiLON.mkv
  3. Format                                   : Matroska
  4. Format version                           : Version 4
  5. File size                                : 19.1 GiB
  6. Duration                                 : 1 h 35 min
  7. Overall bit rate mode                    : Variable
  8. Overall bit rate                         : 28.6 Mb/s
  9. Encoded date                             : UTC 2019-04-15 15:17:42
  10. Writing application                      : mkvmerge v33.0.0 ('A Little Bit of Madness') 64-bit
  11. Writing library                          : libebml v1.3.7 + libmatroska v1.5.0
  12. IMDB                                     : tt0085409
  13. TMDB                                     : movie/168940
  14.  
  15. Video
  16. ID                                       : 1
  17. Format                                   : AVC
  18. Format/Info                              : Advanced Video Codec
  19. Format profile                           : High@L4.1
  20. Format settings                          : CABAC / 4 Ref Frames
  21. Format settings, CABAC                   : Yes
  22. Format settings, Reference frames        : 4 frames
  23. Codec ID                                 : V_MPEG4/ISO/AVC
  24. Duration                                 : 1 h 35 min
  25. Bit rate mode                            : Variable
  26. Bit rate                                 : 26.9 Mb/s
  27. Maximum bit rate                         : 32.0 Mb/s
  28. Width                                    : 1 920 pixels
  29. Height                                   : 1 080 pixels
  30. Display aspect ratio                     : 16:9
  31. Frame rate mode                          : Constant
  32. Frame rate                               : 23.976 (24000/1001) FPS
  33. Color space                              : YUV
  34. Chroma subsampling                       : 4:2:0
  35. Bit depth                                : 8 bits
  36. Scan type                                : Progressive
  37. Bits/(Pixel*Frame)                       : 0.541
  38. Stream size                              : 17.9 GiB (94%)
  39. Title                                    : MPEG-4 AVC Video / 26994 kbps / 1080p / 23.976 fps / 16:9 / High Profile 4.1
  40. Language                                 : English
  41. Default                                  : Yes
  42. Forced                                   : No
  43.  
  44. Audio
  45. ID                                       : 2
  46. Format                                   : DTS XLL
  47. Format/Info                              : Digital Theater Systems
  48. Commercial name                          : DTS-HD Master Audio
  49. Codec ID                                 : A_DTS
  50. Duration                                 : 1 h 35 min
  51. Bit rate mode                            : Variable
  52. Bit rate                                 : 1 679 kb/s
  53. Channel(s)                               : 2 channels
  54. Channel layout                           : L R
  55. Sampling rate                            : 48.0 kHz
  56. Frame rate                               : 93.750 FPS (512 SPF)
  57. Bit depth                                : 24 bits
  58. Compression mode                         : Lossless
  59. Stream size                              : 1.12 GiB (6%)
  60. Title                                    : DTS-HD Master Audio / 2.0 / 48 kHz / 1679 kbps / 24-bit
  61. Language                                 : English
  62. Default                                  : Yes
  63. Forced                                   : No
  64.  
  65. Text
  66. ID                                       : 3
  67. Format                                   : PGS
  68. Codec ID                                 : S_HDMV/PGS
  69. Codec ID/Info                            : Picture based subtitle format used on BDs/HD-DVDs
  70. Duration                                 : 1 h 35 min
  71. Bit rate                                 : 43.9 kb/s
  72. Count of elements                        : 2367
  73. Stream size                              : 29.9 MiB (0%)
  74. Title                                    : SDH
  75. Language                                 : English
  76. Default                                  : No
  77. Forced                                   : No
  78.  
  79. Menu
  80. 00:00:00.000                             : en:Chapter 1
  81. 00:06:12.372                             : en:Chapter 2
  82. 00:11:58.593                             : en:Chapter 3
  83. 00:17:16.118                             : en:Chapter 4
  84. 00:22:00.819                             : en:Chapter 5
  85. 00:28:37.966                             : en:Chapter 6
  86. 00:35:43.183                             : en:Chapter 7
  87. 00:43:43.287                             : en:Chapter 8
  88. 00:50:42.414                             : en:Chapter 9
  89. 01:00:30.877                             : en:Chapter 10
  90. 01:10:07.370                             : en:Chapter 11
  91. 01:21:44.691                             : en:Chapter 12
RAW Paste Data