daily pastebin goal
9%
SHARE
TWEET

Henchmen.2018.1080p.WEB-DL.DD5.1.H264-FGT.mkv

iMN0 Jan 1st, 2019 19 Never
Not a member of Pastebin yet? Sign Up, it unlocks many cool features!
  1. General
  2. Unique ID                                : 32764234984167983640933812405223671867 (0x18A6298118836965E6DE3A71F595C83B)
  3. Complete name                            : Henchmen.2018.1080p.WEB-DL.DD5.1.H264-FGT.mkv
  4. Format                                   : Matroska
  5. Format version                           : Version 4 / Version 2
  6. File size                                : 3.06 GiB
  7. Duration                                 : 1h 29mn
  8. Overall bit rate                         : 4 923 Kbps
  9. Movie name                               : Henchmen.2018.1080p.WEB-DL.DD5.1.H264-FGT
  10. Encoded date                             : UTC 2019-01-01 12:44:26
  11. Writing application                      : mkvmerge v29.0.0 ('Like It Or Not') 64-bit
  12. Writing library                          : libebml v1.3.6 + libmatroska v1.4.9
  13. Cover                                    : Yes
  14. Attachments                              : small_cover_land.jpg / cover.jpg / cover_land.jpg / small_cover.jpg
  15.  
  16. Video
  17. ID                                       : 1
  18. Format                                   : AVC
  19. Format/Info                              : Advanced Video Codec
  20. Format profile                           : High@L4
  21. Format settings, CABAC                   : Yes
  22. Format settings, ReFrames                : 5 frames
  23. Codec ID                                 : V_MPEG4/ISO/AVC
  24. Duration                                 : 1h 29mn
  25. Bit rate                                 : 4 537 Kbps
  26. Width                                    : 1 920 pixels
  27. Height                                   : 802 pixels
  28. Display aspect ratio                     : 2.40:1
  29. Frame rate mode                          : Constant
  30. Frame rate                               : 23.976 (23976/1000) fps
  31. Color space                              : YUV
  32. Chroma subsampling                       : 4:2:0
  33. Bit depth                                : 8 bits
  34. Scan type                                : Progressive
  35. Bits/(Pixel*Frame)                       : 0.123
  36. Stream size                              : 2.82 GiB (92%)
  37. Title                                    : Henchmen.2018.1080p.WEB-DL.DD5.1.H264-FGT
  38. Language                                 : English
  39. Default                                  : Yes
  40. Forced                                   : No
  41. Color range                              : Limited
  42. Color primaries                          : BT.709
  43. Transfer characteristics                 : BT.709
  44. Matrix coefficients                      : BT.709
  45.  
  46. Audio
  47. ID                                       : 2
  48. Format                                   : AC-3
  49. Format/Info                              : Audio Coding 3
  50. Mode extension                           : CM (complete main)
  51. Format settings, Endianness              : Big
  52. Codec ID                                 : A_AC3
  53. Duration                                 : 1h 29mn
  54. Bit rate mode                            : Constant
  55. Bit rate                                 : 384 Kbps
  56. Channel(s)                               : 6 channels
  57. Channel positions                        : Front: L C R, Side: L R, LFE
  58. Sampling rate                            : 48.0 KHz
  59. Frame rate                               : 31.250 fps (1536 spf)
  60. Compression mode                         : Lossy
  61. Stream size                              : 244 MiB (8%)
  62. Title                                    : Henchmen.2018.1080p.WEB-DL.DD5.1.H264-FGT
  63. Language                                 : English
  64. Default                                  : Yes
  65. Forced                                   : No
  66.  
  67. Menu
  68. 00:00:00.000                             : en:Chapter 1
  69. 00:07:40.835                             : en:Chapter 2
  70. 00:16:15.682                             : en:Chapter 3
  71. 00:24:27.089                             : en:Chapter 4
  72. 00:33:29.047                             : en:Chapter 5
  73. 00:41:01.374                             : en:Chapter 6
  74. 00:48:44.794                             : en:Chapter 7
  75. 00:56:08.904                             : en:Chapter 8
  76. 01:05:18.078                             : en:Chapter 9
  77. 01:14:45.853                             : en:Chapter 10
  78. 01:23:26.623                             : en:Chapter 11
RAW Paste Data
We use cookies for various purposes including analytics. By continuing to use Pastebin, you agree to our use of cookies as described in the Cookies Policy. OK, I Understand
 
Top