SHARE
TWEET

[Koby] Hitori no Shita - The Outcast - 01 (WEB 1080p AAC) [35DD63A8].mkv

HYBRID_BEING Aug 27th, 2016 93 Never
Not a member of Pastebin yet? Sign Up, it unlocks many cool features!
  1. General
  2. Unique ID                                : 187112505247640206772019791607394397813 (0x8CC48EC44902A1AAA2E180593696EE75)
  3. Complete name                            : [Koby] Hitori no Shita - The Outcast - 01 (WEB 1080p AAC) [35DD63A8].mkv
  4. Format                                   : Matroska
  5. Format version                           : Version 4 / Version 2
  6. File size                                : 543 MiB
  7. Duration                                 : 23mn 40s
  8. Overall bit rate                         : 3 205 Kbps
  9. Movie name                               : Hitori no Shita - The Outcast - 01
  10. Encoded date                             : UTC 2016-07-23 22:51:47
  11. Writing application                      : mkvmerge v9.2.0 ('Photograph') 64bit
  12. Writing library                          : libebml v1.3.3 + libmatroska v1.4.4
  13. Attachments                              : arialbd.ttf / bang whack pow.ttf / Enigma.TTF / OpenSans-Semibold.ttf / Why do we blink so frequently, Dark.ttf
  14.  
  15. Video
  16. ID                                       : 1
  17. Format                                   : AVC
  18. Format/Info                              : Advanced Video Codec
  19. Format profile                           : High@L4
  20. Format settings, CABAC                   : Yes
  21. Format settings, ReFrames                : 4 frames
  22. Codec ID                                 : V_MPEG4/ISO/AVC
  23. Duration                                 : 23mn 39s
  24. Bit rate                                 : 3 072 Kbps
  25. Width                                    : 1 920 pixels
  26. Height                                   : 1 080 pixels
  27. Display aspect ratio                     : 16:9
  28. Frame rate mode                          : Variable
  29. Frame rate                               : 23.976 (23976/1000) fps
  30. Color space                              : YUV
  31. Chroma subsampling                       : 4:2:0
  32. Bit depth                                : 8 bits
  33. Scan type                                : Progressive
  34. Bits/(Pixel*Frame)                       : 0.062
  35. Stream size                              : 519 MiB (96%)
  36. Writing library                          : x264 core 120 r2120 0c7dab9
  37. Encoding settings                        : cabac=1 / ref=4 / deblock=1:1:1 / analyse=0x3:0x113 / me=umh / subme=8 / psy=1 / psy_rd=0.40:0.00 / mixed_ref=1 / me_range=16 / chroma_me=1 / trellis=1 / 8x8dct=1 / cqm=0 / deadzone=21,11 / fast_pskip=1 / chroma_qp_offset=-2 / threads=8 / sliced_threads=0 / nr=0 / decimate=1 / interlaced=0 / bluray_compat=0 / constrained_intra=0 / bframes=3 / b_pyramid=2 / b_adapt=2 / b_bias=0 / direct=3 / weightb=1 / open_gop=0 / weightp=2 / keyint=250 / keyint_min=23 / scenecut=40 / intra_refresh=0 / rc_lookahead=50 / rc=2pass / mbtree=1 / bitrate=3072 / ratetol=1.0 / qcomp=0.60 / qpmin=0 / qpmax=69 / qpstep=4 / cplxblur=20.0 / qblur=0.5 / vbv_maxrate=6144 / vbv_bufsize=15360 / nal_hrd=none / ip_ratio=1.40 / aq=1:0.60
  38. Language                                 : Japanese
  39. Default                                  : Yes
  40. Forced                                   : No
  41.  
  42. Audio
  43. ID                                       : 2
  44. Format                                   : AAC
  45. Format/Info                              : Advanced Audio Codec
  46. Format profile                           : LC
  47. Codec ID                                 : A_AAC
  48. Duration                                 : 23mn 40s
  49. Bit rate                                 : 128 Kbps
  50. Channel(s)                               : 2 channels
  51. Channel positions                        : Front: L R
  52. Sampling rate                            : 44.1 KHz
  53. Frame rate                               : 43.066 fps (1024 spf)
  54. Compression mode                         : Lossy
  55. Stream size                              : 21.7 MiB (4%)
  56. Language                                 : Japanese
  57. Default                                  : Yes
  58. Forced                                   : No
  59.  
  60. Text
  61. ID                                       : 3
  62. Format                                   : ASS
  63. Codec ID                                 : S_TEXT/ASS
  64. Codec ID/Info                            : Advanced Sub Station Alpha
  65. Duration                                 : 23mn 33s
  66. Bit rate                                 : 1 189 bps
  67. Count of elements                        : 2045
  68. Compression mode                         : Lossless
  69. Stream size                              : 205 KiB (0%)
  70. Title                                    : Dialogue
  71. Language                                 : English
  72. Default                                  : Yes
  73. Forced                                   : No
  74.  
  75. Menu
  76. 00:00:00.000                             : en:HAL Logo
  77. 00:00:05.964                             : en:Opening
  78. 00:01:35.000                             : en:Part A
  79. 00:11:53.000                             : en:Part B
  80. 00:21:55.000                             : en:Ending
  81. 00:23:25.000                             : :Preview
RAW Paste Data
We use cookies for various purposes including analytics. By continuing to use Pastebin, you agree to our use of cookies as described in the Cookies Policy. OK, I Understand
Top