SHARE
TWEET

Untitled

Shaon181 Mar 23rd, 2019 93 Never
Not a member of Pastebin yet? Sign Up, it unlocks many cool features!
  1. General
  2. Unique ID                   : 110756560595924102316777131474257782269 (0x5352F00A69F306DF2FD309A3021925FD)
  3. Complete name               : D:\Anime\13\New folder\[ReinForce] Isekai Maou to Shoukan Shoujo no Dorei Majutsu (BDRip 1920x1080 x264 Dual Audio)\[ReinForce] Isekai Maou to Shoukan Shoujo no Dorei Majutsu 01 (BDRip 1920x1080 x264 Dual Audio).mkv
  4. Format                      : Matroska
  5. Format version              : Version 4 / Version 2
  6. File size                   : 2.53 GiB
  7. Duration                    : 23 min 42 s
  8. Overall bit rate mode       : Variable
  9. Overall bit rate            : 15.3 Mb/s
  10. Encoded date                : UTC 2019-02-25 02:47:55
  11. Writing application         : mkvmerge v19.0.0 ('Brave Captain') 64-bit
  12. Writing library             : libebml v1.3.5 + libmatroska v1.4.8
  13. Attachments                 : A-OTF-RyuminPro-Bold.otf / BERKSHIRESWASH-REGULAR.TTF / calibri.ttf / CronosPro-Bold.otf / CronosPro-BoldIt.otf / DroidSans.ttf / HEART shapes.ttf / Latienne_Becker_Med.ttf / T3.ttf / AB Nirvana ESP.ttf / AbelBecker Bold.ttf
  14.  
  15. Video
  16. ID                          : 1
  17. Format                      : AVC
  18. Format/Info                 : Advanced Video Codec
  19. Format profile              : High@L4
  20. Format settings             : CABAC / 4 Ref Frames
  21. Format settings, CABAC      : Yes
  22. Format settings, ReFrames   : 4 frames
  23. Codec ID                    : V_MPEG4/ISO/AVC
  24. Duration                    : 23 min 42 s
  25. Bit rate                    : 13.5 Mb/s
  26. Width                       : 1 920 pixels
  27. Height                      : 1 080 pixels
  28. Display aspect ratio        : 16:9
  29. Frame rate mode             : Constant
  30. Frame rate                  : 23.976 (24000/1001) FPS
  31. Color space                 : YUV
  32. Chroma subsampling          : 4:2:0
  33. Bit depth                   : 8 bits
  34. Scan type                   : Progressive
  35. Bits/(Pixel*Frame)          : 0.271
  36. Stream size                 : 2.23 GiB (88%)
  37. Title                       : ReinForce
  38. Writing library             : x264 core 152
  39. Encoding settings           : opencl=1 / cabac=1 / ref=4 / deblock=1:-2:-2 / analyse=0x3:0x113 / me=umh / subme=9 / psy=1 / psy_rd=0.70:0.00 / mixed_ref=0 / me_range=32 / chroma_me=1 / trellis=2 / 8x8dct=1 / cqm=0 / deadzone=21,11 / fast_pskip=1 / chroma_qp_offset=-2 / threads=8 / lookahead_threads=1 / sliced_threads=0 / nr=0 / decimate=1 / interlaced=0 / bluray_compat=0 / constrained_intra=0 / bframes=9 / b_pyramid=2 / b_adapt=2 / b_bias=0 / direct=3 / weightb=1 / open_gop=0 / weightp=2 / keyint=250 / keyint_min=23 / scenecut=40 / intra_refresh=0 / rc_lookahead=40 / rc=crf / mbtree=1 / crf=16.0 / qcomp=0.70 / qpmin=10 / qpmax=20 / qpstep=4 / ip_ratio=1.40 / aq=1:1.00
  40. Language                    : Japanese
  41. Default                     : Yes
  42. Forced                      : No
  43.  
  44. Audio #1
  45. ID                          : 2
  46. Format                      : FLAC
  47. Format/Info                 : Free Lossless Audio Codec
  48. Codec ID                    : A_FLAC
  49. Duration                    : 23 min 42 s
  50. Bit rate mode               : Variable
  51. Bit rate                    : 1 446 kb/s
  52. Channel(s)                  : 2 channels
  53. Channel positions           : Front: L R
  54. Sampling rate               : 48.0 kHz
  55. Frame rate                  : 10.417 FPS (4608 SPF)
  56. Bit depth                   : 24 bits
  57. Stream size                 : 245 MiB (9%)
  58. Title                       : 2.0 FLAC (24-bit)
  59. Writing library             : Lavf57.83.100
  60. Language                    : Japanese
  61. Default                     : Yes
  62. Forced                      : No
  63.  
  64. Audio #2
  65. ID                          : 3
  66. Format                      : AAC
  67. Format/Info                 : Advanced Audio Codec
  68. Format profile              : LC
  69. Codec ID                    : A_AAC-2
  70. Duration                    : 23 min 42 s
  71. Bit rate                    : 192 kb/s
  72. Channel(s)                  : 2 channels
  73. Channel positions           : Front: L R
  74. Sampling rate               : 44.1 kHz
  75. Frame rate                  : 43.066 FPS (1024 SPF)
  76. Compression mode            : Lossy
  77. Stream size                 : 33.2 MiB (1%)
  78. Title                       : Funimation (Web)
  79. Language                    : English
  80. Default                     : No
  81. Forced                      : No
  82.  
  83. Text #1
  84. ID                          : 4
  85. Format                      : ASS
  86. Codec ID                    : S_TEXT/ASS
  87. Codec ID/Info               : Advanced Sub Station Alpha
  88. Duration                    : 23 min 37 s
  89. Bit rate                    : 35.9 kb/s
  90. Count of elements           : 21679
  91. Compression mode            : Lossless
  92. Stream size                 : 6.06 MiB (0%)
  93. Title                       : Golumpa
  94. Language                    : English
  95. Default                     : Yes
  96. Forced                      : No
  97.  
  98. Text #2
  99. ID                          : 5
  100. Format                      : ASS
  101. Codec ID                    : S_TEXT/ASS
  102. Codec ID/Info               : Advanced Sub Station Alpha
  103. Duration                    : 22 min 57 s
  104. Bit rate                    : 36.8 kb/s
  105. Count of elements           : 21289
  106. Compression mode            : Lossless
  107. Stream size                 : 6.04 MiB (0%)
  108. Title                       : Signs & Songs (Golumpa)
  109. Language                    : English
  110. Default                     : No
  111. Forced                      : No
  112.  
  113. Menu
  114. 00:00:00.000                : en:Intro
  115. 00:01:27.003                : en:OP
  116. 00:02:57.051                : en:Part A
  117. 00:10:00.016                : en:Part B
  118. 00:22:13.957                : en:ED
  119. 00:23:30.033                : en:Next Episode
  120. 00:23:40.043                : en:AT-X End Stinger
RAW Paste Data
We use cookies for various purposes including analytics. By continuing to use Pastebin, you agree to our use of cookies as described in the Cookies Policy. OK, I Understand
Not a member of Pastebin yet?
Sign Up, it unlocks many cool features!
 
Top