srsfknbznsinhere

[FuniRip] Tales of Zestiria the X - 02 [720p].mp4

Aug 22nd, 2016
71
Never
Not a member of Pastebin yet? Sign Up, it unlocks many cool features!
  1. General
  2. Format : MPEG-4
  3. Format profile : Base Media / Version 2
  4. Codec ID : mp42
  5. File size : 447 MiB
  6. Duration : 23mn 48s
  7. Overall bit rate mode : Variable
  8. Overall bit rate : 2 628 Kbps
  9. Encoded date : UTC 2016-07-17 01:42:53
  10. Tagged date : UTC 2016-07-17 01:42:53
  11.  
  12. Video
  13. ID : 1
  14. Format : AVC
  15. Format/Info : Advanced Video Codec
  16. Format profile : High@L3.1
  17. Format settings, CABAC : Yes
  18. Format settings, ReFrames : 2 frames
  19. Codec ID : avc1
  20. Codec ID/Info : Advanced Video Coding
  21. Duration : 23mn 48s
  22. Source duration : 23mn 48s
  23. Bit rate mode : Constant
  24. Bit rate : 2 500 Kbps
  25. Width : 1 280 pixels
  26. Height : 720 pixels
  27. Display aspect ratio : 16:9
  28. Frame rate mode : Constant
  29. Frame rate : 23.976 fps
  30. Color space : YUV
  31. Chroma subsampling : 4:2:0
  32. Bit depth : 8 bits
  33. Scan type : Progressive
  34. Bits/(Pixel*Frame) : 0.113
  35. Stream size : 425 MiB (95%)
  36. Source stream size : 425 MiB (95%)
  37. Language : English
  38. Encoded date : UTC 2016-07-17 01:42:53
  39. Tagged date : UTC 2016-07-17 01:42:53
  40. Color range : Limited
  41. Color primaries : BT.709
  42. Transfer characteristics : BT.709
  43. Matrix coefficients : BT.709
  44.  
  45. Audio
  46. ID : 2
  47. Format : AAC
  48. Format/Info : Advanced Audio Codec
  49. Format profile : LC
  50. Codec ID : 40
  51. Duration : 23mn 48s
  52. Source duration : 23mn 48s
  53. Bit rate mode : Variable
  54. Bit rate : 126 Kbps
  55. Maximum bit rate : 529 Kbps
  56. Channel(s) : 2 channels
  57. Channel positions : Front: L R
  58. Sampling rate : 44.1 KHz
  59. Compression mode : Lossy
  60. Stream size : 21.4 MiB (5%)
  61. Source stream size : 21.4 MiB (5%)
  62. Language : English
  63. Encoded date : UTC 2016-07-17 01:42:53
  64. Tagged date : UTC 2016-07-17 01:42:53
  65. mdhd_Duration : 1428515
RAW Paste Data