Advertisement
daviox

FFMpeg - Log konwersji

Dec 30th, 2017
26
Never
Not a member of Pastebin yet? Sign Up, it unlocks many cool features!
  1. Input #0, mov,mp4,m4a,3gp,3g2,mj2, from 'M42CWKBD3fU.m4a':
  2. Metadata:
  3. major_brand : dash
  4. minor_version : 0
  5. compatible_brands: iso6mp41
  6. creation_time : 2017-06-26T11:54:34.000000Z
  7. Duration: 00:05:26.75, start: 0.000000, bitrate: 127 kb/s
  8. Stream #0:0(und): Audio: aac (LC) (mp4a / 0x6134706D), 44100 Hz, stereo, fltp, 125 kb/s (default)
  9. Metadata:
  10. creation_time : 2017-06-26T11:54:34.000000Z
  11. handler_name : SoundHandler
  12. Output #0, wav, to 'source.wav':
  13. Metadata:
  14. major_brand : dash
  15. minor_version : 0
  16. compatible_brands: iso6mp41
  17. ISFT : Lavf57.56.101
  18. Stream #0:0(und): Audio: pcm_s16le ([1][0][0][0] / 0x0001), 44100 Hz, stereo, s16, 1411 kb/s (default)
  19. Metadata:
  20. creation_time : 2017-06-26T11:54:34.000000Z
  21. handler_name : SoundHandler
  22. encoder : Lavc57.64.101 pcm_s16le
  23. Stream mapping:
  24. Stream #0:0 -> #0:0 (aac (native) -> pcm_s16le (native))
  25. Press [q] to stop, [?] for help
  26. size= 56288kB time=00:05:26.75 bitrate=1411.2kbits/s speed=4.09x
  27. video:0kB audio:56288kB subtitle:0kB other streams:0kB global headers:0kB muxing overhead: 0.000135%
Advertisement
Advertisement
Advertisement
RAW Paste Data Copied
Advertisement