SHARE
TWEET

Untitled

Secasa Aug 11th, 2017 1 Never
Not a member of Pastebin yet? Sign Up, it unlocks many cool features!
  1. Format                                   : Matroska
  2. Format version                           : Version 4 / Version 2
  3. File size                                : 2.37 GiB
  4. Duration                                 : 1h 32mn
  5. Overall bit rate                         : 3 685 Kbps
  6. Encoded date                             : UTC 2017-07-28 22:59:15
  7. Writing application                      : mkvmerge v9.5.0 ('Quiet Fire') 32bit
  8. Writing library                          : libebml v1.3.4 + libmatroska v1.4.5
  9. DURATION                                 : 01:31:22.706000000
  10. NUMBER_OF_FRAMES                         : 1228
  11. NUMBER_OF_BYTES                          : 59615
  12. _STATISTICS_WRITING_APP                  : mkvmerge v9.5.0 ('Quiet Fire') 32bit
  13. _STATISTICS_WRITING_DATE_UTC             : 2017-07-28 22:59:15
  14. _STATISTICS_TAGS                         : BPS DURATION NUMBER_OF_FRAMES NUMBER_OF_BYTES
  15.  
  16. Video
  17. ID                                       : 1
  18. Format                                   : AVC
  19. Format/Info                              : Advanced Video Codec
  20. Format profile                           : High@L3.1
  21. Format settings, CABAC                   : Yes
  22. Format settings, ReFrames                : 4 frames
  23. Codec ID                                 : V_MPEG4/ISO/AVC
  24. Duration                                 : 1h 32mn
  25. Bit rate                                 : 3 300 Kbps
  26. Width                                    : 1 280 pixels
  27. Height                                   : 544 pixels
  28. Display aspect ratio                     : 2.35:1
  29. Frame rate mode                          : Constant
  30. Frame rate                               : 23.976 fps
  31. Color space                              : YUV
  32. Chroma subsampling                       : 4:2:0
  33. Bit depth                                : 8 bits
  34. Scan type                                : Progressive
  35. Bits/(Pixel*Frame)                       : 0.198
  36. Stream size                              : 2.08 GiB (88%)
  37. Title                                    : El doble del general (Plan 402).(1961).by.Marc27.[filibusteros.com]
  38. Writing library                          : x264 core 148 r2744 b97ae06
  39. Encoding settings                        : cabac=1 / ref=3 / deblock=1:-1:-1 / analyse=0x3:0x113 / me=hex / subme=7 / psy=1 / psy_rd=1.00:0.15 / mixed_ref=1 / me_range=16 / chroma_me=1 / trellis=1 / 8x8dct=1 / cqm=0 / deadzone=21,11 / fast_pskip=1 / chroma_qp_offset=-3 / threads=6 / lookahead_threads=1 / sliced_threads=0 / nr=0 / decimate=1 / interlaced=0 / bluray_compat=0 / constrained_intra=0 / bframes=3 / b_pyramid=2 / b_adapt=1 / b_bias=0 / direct=1 / weightb=1 / open_gop=0 / weightp=2 / keyint=240 / keyint_min=23 / scenecut=40 / intra_refresh=0 / rc_lookahead=40 / rc=2pass / mbtree=1 / bitrate=3300 / ratetol=1.0 / qcomp=0.60 / qpmin=0 / qpmax=69 / qpstep=4 / cplxblur=20.0 / qblur=0.5 / ip_ratio=1.40 / aq=1:1.00
  40. Language                                 : English
  41. Default                                  : Yes
  42. Forced                                   : No
  43.  
  44. Audio #1
  45. ID                                       : 2
  46. Format                                   : AC-3
  47. Format/Info                              : Audio Coding 3
  48. Mode extension                           : CM (complete main)
  49. Format settings, Endianness              : Big
  50. Codec ID                                 : A_AC3
  51. Duration                                 : 1h 32mn
  52. Bit rate mode                            : Constant
  53. Bit rate                                 : 192 Kbps
  54. Channel count                            : 2 channels
  55. Channel positions                        : Front: L R
  56. Sampling rate                            : 48.0 KHz
  57. Bit depth                                : 16 bits
  58. Compression mode                         : Lossy
  59. Stream size                              : 126 MiB (5%)
  60. Title                                    : Castellano ac3
  61. Language                                 : Spanish
  62. Default                                  : Yes
  63. Forced                                   : No
  64.  
  65. Audio #2
  66. ID                                       : 3
  67. Format                                   : AC-3
  68. Format/Info                              : Audio Coding 3
  69. Mode extension                           : CM (complete main)
  70. Format settings, Endianness              : Big
  71. Codec ID                                 : A_AC3
  72. Duration                                 : 1h 32mn
  73. Bit rate mode                            : Constant
  74. Bit rate                                 : 192 Kbps
  75. Channel count                            : 1 channel
  76. Channel positions                        : Front: C
  77. Sampling rate                            : 48.0 KHz
  78. Bit depth                                : 16 bits
  79. Compression mode                         : Lossy
  80. Stream size                              : 126 MiB (5%)
  81. Title                                    : Ingles ac3
  82. Language                                 : English
  83. Default                                  : No
  84. Forced                                   : No
  85.  
  86. Text #1
  87. ID                                       : 4
  88. Format                                   : UTF-8
  89. Codec ID                                 : S_TEXT/UTF8
  90. Codec ID/Info                            : UTF-8 Plain Text
  91. Title                                    : Castellano forzados
  92. Language                                 : Spanish
  93. Default                                  : Yes
  94. Forced                                   : Yes
  95.  
  96. Text #2
  97. ID                                       : 5
  98. Format                                   : UTF-8
  99. Codec ID                                 : S_TEXT/UTF8
  100. Codec ID/Info                            : UTF-8 Plain Text
  101. Title                                    : Castellano completos
  102. Language                                 : Spanish
  103. Default                                  : No
  104. Forced                                   : No
RAW Paste Data
Pastebin PRO Autumn Special!
Get 40% OFF on Pastebin PRO accounts!
Top