SHARE
TWEET

Paperhouse.1988.1080p.BluRay.x264-CiNEFiLE

a guest May 23rd, 2019 7 Never
Not a member of Pastebin yet? Sign Up, it unlocks many cool features!
  1. General
  2. Unique ID                                : 240187643444275290612804730287926061036 (0xB4B2751D491FD636B76F59245724A7EC)
  3. Complete name                            : Paperhouse.1988.1080p.BluRay.x264-CiNEFiLE.mkv
  4. Format                                   : Matroska
  5. Format version                           : Version 4
  6. File size                                : 6.56 GiB
  7. Duration                                 : 1 h 32 min
  8. Overall bit rate                         : 10.1 Mb/s
  9. Encoded date                             : UTC 2013-05-29 21:31:21
  10. Writing application                      : mkvmerge v6.2.0 ('Promised Land') built on Apr 28 2013 12:22:01
  11. Writing library                          : libebml v1.3.0 + libmatroska v1.4.0
  12.  
  13. Video
  14. ID                                       : 1
  15. Format                                   : AVC
  16. Format/Info                              : Advanced Video Codec
  17. Format profile                           : High@L4
  18. Format settings                          : CABAC / 4 Ref Frames
  19. Format settings, CABAC                   : Yes
  20. Format settings, Reference frames        : 4 frames
  21. Codec ID                                 : V_MPEG4/ISO/AVC
  22. Duration                                 : 1 h 32 min
  23. Bit rate                                 : 9 371 kb/s
  24. Width                                    : 1 920 pixels
  25. Height                                   : 1 040 pixels
  26. Display aspect ratio                     : 1.85:1
  27. Frame rate mode                          : Constant
  28. Frame rate                               : 23.976 (24000/1001) FPS
  29. Color space                              : YUV
  30. Chroma subsampling                       : 4:2:0
  31. Bit depth                                : 8 bits
  32. Scan type                                : Progressive
  33. Bits/(Pixel*Frame)                       : 0.196
  34. Stream size                              : 5.93 GiB (90%)
  35. Writing library                          : x264 core 133 r2334 a3ac64b
  36. Encoding settings                        : cabac=1 / ref=4 / deblock=1:0:0 / analyse=0x3:0x133 / me=umh / subme=7 / psy=1 / psy_rd=1.00:0.00 / mixed_ref=1 / me_range=16 / chroma_me=1 / trellis=1 / 8x8dct=1 / cqm=0 / deadzone=21,11 / fast_pskip=0 / chroma_qp_offset=-2 / threads=18 / lookahead_threads=3 / sliced_threads=0 / nr=0 / decimate=1 / interlaced=0 / bluray_compat=0 / constrained_intra=0 / bframes=3 / b_pyramid=2 / b_adapt=2 / b_bias=0 / direct=3 / weightb=1 / open_gop=0 / weightp=2 / keyint=250 / keyint_min=23 / scenecut=40 / intra_refresh=0 / rc_lookahead=50 / rc=2pass / mbtree=1 / bitrate=9371 / ratetol=1.0 / qcomp=0.60 / qpmin=0 / qpmax=69 / qpstep=4 / cplxblur=20.0 / qblur=0.5 / ip_ratio=1.40 / aq=1:1.00
  37. Language                                 : English
  38. Default                                  : Yes
  39. Forced                                   : No
  40.  
  41. Audio
  42. ID                                       : 2
  43. Format                                   : DTS
  44. Format/Info                              : Digital Theater Systems
  45. Codec ID                                 : A_DTS
  46. Duration                                 : 1 h 32 min
  47. Bit rate mode                            : Constant
  48. Bit rate                                 : 768 kb/s
  49. Channel(s)                               : 2 channels
  50. Channel layout                           : Lt Rt
  51. Sampling rate                            : 48.0 kHz
  52. Frame rate                               : 93.750 FPS (512 SPF)
  53. Bit depth                                : 24 bits
  54. Compression mode                         : Lossy
  55. Stream size                              : 509 MiB (8%)
  56. Language                                 : English
  57. Default                                  : Yes
  58. Forced                                   : No
  59.  
  60. Menu
  61. 00:00:00.000                             : en:00:00:00.000
  62. 00:02:41.286                             : en:00:02:41.286
  63. 00:09:32.405                             : en:00:09:32.405
  64. 00:15:28.970                             : en:00:15:28.970
  65. 00:22:24.718                             : en:00:22:24.718
  66. 00:31:15.874                             : en:00:31:15.874
  67. 00:36:48.581                             : en:00:36:48.581
  68. 00:43:36.739                             : en:00:43:36.739
  69. 00:49:42.813                             : en:00:49:42.813
  70. 00:57:46.713                             : en:00:57:46.713
  71. 01:05:04.526                             : en:01:05:04.526
  72. 01:09:06.017                             : en:01:09:06.017
  73. 01:14:04.065                             : en:01:14:04.065
  74. 01:19:04.657                             : en:01:19:04.657
  75. 01:24:46.873                             : en:01:24:46.873
  76. 01:29:56.725                             : en:01:29:56.725
RAW Paste Data
We use cookies for various purposes including analytics. By continuing to use Pastebin, you agree to our use of cookies as described in the Cookies Policy. OK, I Understand
Top