G2A Many GEOs
SHARE
TWEET

Untitled

Tristan-Nel Apr 7th, 2020 127 Never
Not a member of Pastebin yet? Sign Up, it unlocks many cool features!
  1. tristan@test:~/tmp$ ffmpeg -re -i output.opus -f pulse "stream name"
  2. ffmpeg version 4.1.4-1build2 Copyright (c) 2000-2019 the FFmpeg developers
  3.   built with gcc 9 (Ubuntu 9.2.1-4ubuntu1)
  4.   configuration: --prefix=/usr --extra-version=1build2 --toolchain=hardened --libdir=/usr/lib/x86_64-linux-gnu --incdir=/usr/include/x86_64-linux-gnu --arch=amd64 --enable-gpl --disable-stripping --enable-avresample --disable-filter=resample --enable-avisynth --enable-gnutls --enable-ladspa --enable-libaom --enable-libass --enable-libbluray --enable-libbs2b --enable-libcaca --enable-libcdio --enable-libcodec2 --enable-libflite --enable-libfontconfig --enable-libfreetype --enable-libfribidi --enable-libgme --enable-libgsm --enable-libjack --enable-libmp3lame --enable-libmysofa --enable-libopenjpeg --enable-libopenmpt --enable-libopus --enable-libpulse --enable-librsvg --enable-librubberband --enable-libshine --enable-libsnappy --enable-libsoxr --enable-libspeex --enable-libssh --enable-libtheora --enable-libtwolame --enable-libvidstab --enable-libvorbis --enable-libvpx --enable-libwavpack --enable-libwebp --enable-libx265 --enable-libxml2 --enable-libxvid --enable-libzmq --enable-libzvbi --enable-lv2 --enable-omx --enable-openal --enable-opengl --enable-sdl2 --enable-libdc1394 --enable-libdrm --enable-libiec61883 --enable-chromaprint --enable-frei0r --enable-libx264 --enable-shared
  5.   libavutil      56. 22.100 / 56. 22.100
  6.   libavcodec     58. 35.100 / 58. 35.100
  7.   libavformat    58. 20.100 / 58. 20.100
  8.   libavdevice    58.  5.100 / 58.  5.100
  9.   libavfilter     7. 40.101 /  7. 40.101
  10.   libavresample   4.  0.  0 /  4.  0.  0
  11.   libswscale      5.  3.100 /  5.  3.100
  12.   libswresample   3.  3.100 /  3.  3.100
  13.   libpostproc    55.  3.100 / 55.  3.100
  14. [ogg @ 0x55a3a55db9c0] Cannot identify new stream
  15. [ogg @ 0x55a3a55db9c0] failed to create or replace stream
  16. Input #0, ogg, from 'output.opus':
  17.   Duration: N/A, start: 0.000000, bitrate: N/A
  18.     Stream #0:0: Audio: opus, 48000 Hz, stereo, fltp
  19. Stream mapping:
  20.   Stream #0:0 -> #0:0 (opus (native) -> pcm_s16le (native))
  21. Press [q] to stop, [?] for help
  22. Output #0, pulse, to 'stream name':
  23.   Metadata:
  24.     encoder         : Lavf58.20.100
  25.     Stream #0:0: Audio: pcm_s16le, 48000 Hz, stereo, s16, 1536 kb/s
  26.     Metadata:
  27.       encoder         : Lavc58.35.100 pcm_s16le
  28. [ogg @ 0x55a3a55db9c0] Packet processing failed: Invalid data found when processing input
  29. output.opus: Invalid data found when processing input
  30. size=N/A time=-00:00:00.02 bitrate=N/A speed=N/A    
  31. video:0kB audio:11kB subtitle:0kB other streams:0kB global headers:0kB muxing overhead: unknown
RAW Paste Data
We use cookies for various purposes including analytics. By continuing to use Pastebin, you agree to our use of cookies as described in the Cookies Policy. OK, I Understand
Top