daily pastebin goal
30%
SHARE
TWEET

Untitled

a guest Mar 25th, 2019 61 Never
Not a member of Pastebin yet? Sign Up, it unlocks many cool features!
  1. ffprobe version 3.2.12-1~deb9u1 Copyright (c) 2007-2018 the FFmpeg developers
  2.   built with gcc 6.3.0 (Debian 6.3.0-18+deb9u1) 20170516
  3.   configuration: --prefix=/usr --extra-version='1~deb9u1' --toolchain=hardened --libdir=/usr/lib/x86_64-linux-gnu --incdir=/usr/include/x86_64-linux-gnu --enable-gpl --disable-stripping --enable-avresample --enable-avisynth --enable-gnutls --enable-ladspa --enable-libass --enable-libbluray --enable-libbs2b --enable-libcaca --enable-libcdio --enable-libebur128 --enable-libflite --enable-libfontconfig --enable-libfreetype --enable-libfribidi --enable-libgme --enable-libgsm --enable-libmp3lame --enable-libopenjpeg --enable-libopenmpt --enable-libopus --enable-libpulse --enable-librubberband --enable-libshine --enable-libsnappy --enable-libsoxr --enable-libspeex --enable-libssh --enable-libtheora --enable-libtwolame --enable-libvorbis --enable-libvpx --enable-libwavpack --enable-libwebp --enable-libx265 --enable-libxvid --enable-libzmq --enable-libzvbi --enable-omx --enable-openal --enable-opengl --enable-sdl2 --enable-libdc1394 --enable-libiec61883 --enable-chromaprint --enable-frei0r --enable-libopencv --enable-libx264 --enable-shared
  4.   libavutil      55. 34.101 / 55. 34.101
  5.   libavcodec     57. 64.101 / 57. 64.101
  6.   libavformat    57. 56.101 / 57. 56.101
  7.   libavdevice    57.  1.100 / 57.  1.100
  8.   libavfilter     6. 65.100 /  6. 65.100
  9.   libavresample   3.  1.  0 /  3.  1.  0
  10.   libswscale      4.  2.100 /  4.  2.100
  11.   libswresample   2.  3.100 /  2.  3.100
  12.   libpostproc    54.  1.100 / 54.  1.100
  13. Input #0, mov,mp4,m4a,3gp,3g2,mj2, from 'Pulpit/MAH00057.MP4':
  14.   Metadata:
  15.     major_brand     : MSNV
  16.     minor_version   : 22675568
  17.     compatible_brands: MSNVmp42isom
  18.     creation_time   : 2019-03-20T11:16:51.000000Z
  19.   Duration: 00:10:52.80, start: 0.000000, bitrate: 3160 kb/s
  20.     Stream #0:0(und): Video: h264 (Main) (avc1 / 0x31637661), yuv420p(tv, bt709/bt709/iec61966-2-4), 1280x720 [SAR 1:1 DAR 16:9], 2991 kb/s, 25 fps, 25 tbr, 25k tbn, 50 tbc (default)
  21.     Metadata:
  22.       creation_time   : 2019-03-20T11:16:51.000000Z
  23.       handler_name    : Video Media Handler
  24.       encoder         : AVC Coding
  25.     Stream #0:1(und): Audio: aac (LC) (mp4a / 0x6134706D), 48000 Hz, stereo, fltp, 127 kb/s (default)
  26.     Metadata:
  27.       creation_time   : 2019-03-20T11:16:51.000000Z
  28.       handler_name    : Sound Media Handler
RAW Paste Data
We use cookies for various purposes including analytics. By continuing to use Pastebin, you agree to our use of cookies as described in the Cookies Policy. OK, I Understand
 
Top