SHARE
TWEET

Untitled

a guest May 13th, 2017 498 Never
Not a member of Pastebin yet? Sign Up, it unlocks many cool features!
  1. General
  2. Unique ID                   : 242947875161818414627363619572003702356 (0xB6C60F0B8BF974299DE71E7519550654)
  3. Complete name               : F:\Video\The.Great.Wall.2016.D.BDRip.1080p.ExKinoRay.mkv
  4. Format                      : Matroska
  5. Format version              : Version 4 / Version 2
  6. File size                   : 10.7 GiB
  7. Duration                    : 1 h 43 min
  8. Overall bit rate            : 14.9 Mb/s
  9. Encoded date                : UTC 2017-05-13 16:37:54
  10. Writing application         : mkvmerge v11.0.0 ('Alive') 64bit
  11. Writing library             : libebml v1.3.4 + libmatroska v1.4.5
  12. Cover                       : Yes
  13. Attachments                 : cover.jpg
  14.  
  15. Video
  16. ID                          : 1
  17. Format                      : AVC
  18. Format/Info                 : Advanced Video Codec
  19. Format profile              : High@L4.1
  20. Format settings, CABAC      : Yes
  21. Format settings, ReFrames   : 5 frames
  22. Codec ID                    : V_MPEG4/ISO/AVC
  23. Duration                    : 1 h 43 min
  24. Bit rate                    : 12.7 Mb/s
  25. Width                       : 1 920 pixels
  26. Height                      : 804 pixels
  27. Display aspect ratio        : 2.40:1
  28. Frame rate mode             : Constant
  29. Frame rate                  : 23.976 (24000/1001) FPS
  30. Color space                 : YUV
  31. Chroma subsampling          : 4:2:0
  32. Bit depth                   : 8 bits
  33. Scan type                   : Progressive
  34. Bits/(Pixel*Frame)          : 0.343
  35. Stream size                 : 9.14 GiB (86%)
  36. Writing library             : x264 core 146 r2538 121396c
  37. Encoding settings           : cabac=1 / ref=5 / deblock=1:-3:-3 / analyse=0x3:0x133 / me=umh / subme=11 / psy=1 / psy_rd=1.05:0.05 / mixed_ref=1 / me_range=64 / chroma_me=1 / trellis=2 / 8x8dct=1 / cqm=0 / deadzone=21,11 / fast_pskip=0 / chroma_qp_offset=-3 / threads=6 / lookahead_threads=1 / sliced_threads=0 / nr=0 / decimate=0 / interlaced=0 / bluray_compat=0 / constrained_intra=0 / bframes=8 / b_pyramid=2 / b_adapt=2 / b_bias=0 / direct=3 / weightb=1 / open_gop=0 / weightp=2 / keyint=240 / keyint_min=23 / scenecut=40 / intra_refresh=0 / rc_lookahead=50 / rc=2pass / mbtree=0 / bitrate=12700 / ratetol=1.0 / qcomp=0.60 / qpmin=0 / qpmax=69 / qpstep=4 / cplxblur=20.0 / qblur=0.5 / vbv_maxrate=50000 / vbv_bufsize=62500 / nal_hrd=none / filler=0 / ip_ratio=1.40 / pb_ratio=1.30 / aq=1:0.80
  38. Language                    : English
  39. Default                     : Yes
  40. Forced                      : No
  41.  
  42. Audio #1
  43. ID                          : 2
  44. Format                      : AC-3
  45. Format/Info                 : Audio Coding 3
  46. Format settings, Endianness : Big
  47. Codec ID                    : A_AC3
  48. Duration                    : 1 h 43 min
  49. Bit rate mode               : Constant
  50. Bit rate                    : 640 kb/s
  51. Channel(s)                  : 6 channels
  52. Channel positions           : Front: L C R, Side: L R, LFE
  53. Sampling rate               : 48.0 kHz
  54. Frame rate                  : 31.250 FPS (1536 spf)
  55. Bit depth                   : 16 bits
  56. Compression mode            : Lossy
  57. Stream size                 : 472 MiB (4%)
  58. Title                       : Dub [License]
  59. Language                    : Russian
  60. Service kind                : Complete Main
  61. Default                     : Yes
  62. Forced                      : No
  63.  
  64. Audio #2
  65. ID                          : 3
  66. Format                      : DTS
  67. Format/Info                 : Digital Theater Systems
  68. Mode                        : 16
  69. Format settings, Endianness : Big
  70. Codec ID                    : A_DTS
  71. Duration                    : 1 h 43 min
  72. Bit rate mode               : Constant
  73. Bit rate                    : 1 510 kb/s
  74. Channel(s)                  : 6 channels
  75. Channel positions           : Front: L C R, Side: L R, LFE
  76. Sampling rate               : 48.0 kHz
  77. Frame rate                  : 93.750 FPS (512 spf)
  78. Bit depth                   : 24 bits
  79. Compression mode            : Lossy
  80. Stream size                 : 1.09 GiB (10%)
  81. Title                       : Original
  82. Language                    : English
  83. Default                     : No
  84. Forced                      : No
  85.  
  86. Text #1
  87. ID                          : 4
  88. Format                      : UTF-8
  89. Codec ID                    : S_TEXT/UTF8
  90. Codec ID/Info               : UTF-8 Plain Text
  91. Duration                    : 1 h 25 min
  92. Bit rate                    : 1 b/s
  93. Count of elements           : 22
  94. Stream size                 : 958 Bytes (0%)
  95. Title                       : Forced
  96. Language                    : Russian
  97. Default                     : Yes
  98. Forced                      : No
  99.  
  100. Text #2
  101. ID                          : 5
  102. Format                      : UTF-8
  103. Codec ID                    : S_TEXT/UTF8
  104. Codec ID/Info               : UTF-8 Plain Text
  105. Duration                    : 1 h 30 min
  106. Bit rate                    : 51 b/s
  107. Count of elements           : 829
  108. Stream size                 : 34.0 KiB (0%)
  109. Title                       : Full
  110. Language                    : Russian
  111. Default                     : No
  112. Forced                      : No
  113.  
  114. Text #3
  115. ID                          : 6
  116. Format                      : UTF-8
  117. Codec ID                    : S_TEXT/UTF8
  118. Codec ID/Info               : UTF-8 Plain Text
  119. Duration                    : 1 h 28 min
  120. Bit rate                    : 23 b/s
  121. Count of elements           : 590
  122. Stream size                 : 15.1 KiB (0%)
  123. Title                       : Full
  124. Language                    : English
  125. Default                     : No
  126. Forced                      : No
  127.  
  128. Text #4
  129. ID                          : 7
  130. Format                      : UTF-8
  131. Codec ID                    : S_TEXT/UTF8
  132. Codec ID/Info               : UTF-8 Plain Text
  133. Duration                    : 1 h 29 min
  134. Bit rate                    : 32 b/s
  135. Count of elements           : 867
  136. Stream size                 : 21.2 KiB (0%)
  137. Title                       : SDH
  138. Language                    : English
  139. Default                     : No
  140. Forced                      : No
  141.  
  142. Text #5
  143. ID                          : 8
  144. Format                      : UTF-8
  145. Codec ID                    : S_TEXT/UTF8
  146. Codec ID/Info               : UTF-8 Plain Text
  147. Duration                    : 1 h 30 min
  148. Bit rate                    : 53 b/s
  149. Count of elements           : 868
  150. Stream size                 : 35.7 KiB (0%)
  151. Title                       : SDH Colored
  152. Language                    : English
  153. Default                     : No
  154. Forced                      : No
  155.  
  156. Menu
  157. 00:00:00.000                : en:00:00:00.000
  158. 00:05:58.358                : en:00:05:58.358
  159. 00:11:47.540                : en:00:11:47.540
  160. 00:16:53.679                : en:00:16:53.679
  161. 00:20:13.254                : en:00:20:13.254
  162. 00:25:11.009                : en:00:25:11.009
  163. 00:28:55.317                : en:00:28:55.317
  164. 00:33:57.744                : en:00:33:57.744
  165. 00:37:54.147                : en:00:37:54.147
  166. 00:42:42.935                : en:00:42:42.935
  167. 00:46:18.943                : en:00:46:18.943
  168. 00:50:27.691                : en:00:50:27.691
  169. 00:56:46.069                : en:00:56:46.069
  170. 01:01:58.048                : en:01:01:58.048
  171. 01:07:12.820                : en:01:07:12.820
  172. 01:12:08.533                : en:01:12:08.533
  173. 01:18:20.863                : en:01:18:20.863
  174. 01:23:25.083                : en:01:23:25.083
  175. 01:27:26.158                : en:01:27:26.158
  176. 01:31:14.386                : en:01:31:14.386
RAW Paste Data
We use cookies for various purposes including analytics. By continuing to use Pastebin, you agree to our use of cookies as described in the Cookies Policy. OK, I Understand
Not a member of Pastebin yet?
Sign Up, it unlocks many cool features!
 
Top