Guest User

Untitled

a guest
Jan 17th, 2017
97
Never
Not a member of Pastebin yet? Sign Up, it unlocks many cool features!
  1. Общее
  2. Уникальный идентификатор : 171315305181763288196087812575909403169 (0x80E220AB9517D5368EAC859C51745A21)
  3. Полное имя : F:\Video\Inferno.2016.D.BDRip.1080p.ExKinoRay.mkv
  4. Формат : Matroska
  5. Версия формата : Version 4 / Version 2
  6. Размер файла : 15,1 Гбайт
  7. Продолжительность : 2 ч. 1 м.
  8. Общий поток : 17,8 Мбит/сек
  9. Название фильма : Inferno.2016 ***селезень***
  10. Дата кодирования : UTC 2017-01-18 03:10:17
  11. Программа кодирования : mkvmerge v8.3.0 ('Over the Horizon') 64bit
  12. Библиотека кодирования : libebml v1.3.1 + libmatroska v1.4.2
  13.  
  14. Видео
  15. Идентификатор : 1
  16. Формат : AVC
  17. Формат/Информация : Advanced Video Codec
  18. Профиль формата : High@L4.1
  19. Параметр CABAC формата : Да
  20. Параметр ReFrames формата : 4 кадра
  21. Идентификатор кодека : V_MPEG4/ISO/AVC
  22. Продолжительность : 2 ч. 1 м.
  23. Битрейт : 15,7 Мбит/сек
  24. Ширина : 1920 пикселей
  25. Высота : 1038 пикселей
  26. Соотношение сторон : 1,85:1
  27. Режим частоты кадров : Постоянный
  28. Частота кадров : 23,976 (24000/1001) кадра/сек
  29. Цветовое пространство : YUV
  30. Субдискретизация насыщенности : 4:2:0
  31. Битовая глубина : 8 бит
  32. Тип развёртки : Прогрессивная
  33. Бит/(Пиксели*Кадры) : 0.328
  34. Размер потока : 13,3 Гбайт (88%)
  35. Заголовок : Inferno.2016 ***селезень***
  36. Библиотека кодирования : x264 core 148 r2744kMod b97ae06
  37. Настройки программы : cabac=1 / ref=4 / deblock=1:-3:-3 / analyse=0x3:0x133 / me=umh / subme=11 / psy=1 / fade_compensate=0.00 / psy_rd=1.05:0.00 / mixed_ref=1 / me_range=64 / chroma_me=1 / trellis=2 / 8x8dct=1 / cqm=0 / deadzone=21,11 / fast_pskip=0 / chroma_qp_offset=-2 / threads=12 / lookahead_threads=2 / sliced_threads=0 / nr=0 / decimate=0 / interlaced=0 / bluray_compat=0 / constrained_intra=0 / bframes=8 / b_pyramid=2 / b_adapt=2 / b_bias=0 / direct=3 / weightb=1 / open_gop=0 / weightp=2 / keyint=240 / keyint_min=2 / scenecut=40 / intra_refresh=0 / rc=2pass / mbtree=0 / bitrate=15660 / ratetol=1.0 / qcomp=0.70 / qpmin=0 / qpmax=69 / qpstep=4 / cplxblur=20.0 / qblur=0.5 / ip_ratio=1.25 / pb_ratio=1.20 / aq=3:0.80
  38. Язык : English
  39. Default : Да
  40. Forced : Нет
  41.  
  42. Аудио #1
  43. Идентификатор : 2
  44. Формат : AC-3
  45. Формат/Информация : Audio Coding 3
  46. Расширение режима : CM (complete main)
  47. Параметр Endianness формата : Big
  48. Идентификатор кодека : A_AC3
  49. Продолжительность : 2 ч. 1 м.
  50. Вид битрейта : Постоянный
  51. Битрейт : 640 Кбит/сек
  52. Каналы : 6 каналов
  53. Расположение каналов : Front: L C R, Side: L R, LFE
  54. Частота : 48,0 КГц
  55. Частота кадров : 31,250 кадров/сек (1536 spf)
  56. Битовая глубина : 16 бит
  57. Метод сжатия : С потерями
  58. Размер потока : 557 Мбайт (4%)
  59. Заголовок : Dub [License]
  60. Язык : Russian
  61. Default : Да
  62. Forced : Нет
  63.  
  64. Аудио #2
  65. Идентификатор : 3
  66. Формат : DTS
  67. Формат/Информация : Digital Theater Systems
  68. Режим : 16
  69. Параметр Endianness формата : Big
  70. Идентификатор кодека : A_DTS
  71. Продолжительность : 2 ч. 1 м.
  72. Вид битрейта : Постоянный
  73. Битрейт : 1509 Кбит/сек
  74. Каналы : 6 каналов
  75. Расположение каналов : Front: L C R, Side: L R, LFE
  76. Частота : 48,0 КГц
  77. Частота кадров : 93,750 кадра/сек (512 spf)
  78. Битовая глубина : 24 бит
  79. Метод сжатия : С потерями
  80. Размер потока : 1,28 Гбайт (8%)
  81. Заголовок : Original
  82. Язык : English
  83. Default : Нет
  84. Forced : Нет
  85.  
  86. Текст #1
  87. Идентификатор : 4
  88. Формат : UTF-8
  89. Идентификатор кодека : S_TEXT/UTF8
  90. Идентификатор кодека/Информация : UTF-8 Plain Text
  91. Продолжительность : 1 ч. 53 м.
  92. Битрейт : 3 бит/сек
  93. Count of elements : 48
  94. Размер потока : 2,58 Кбайт (0%)
  95. Заголовок : Forced
  96. Язык : Russian
  97. Default : Да
  98. Forced : Нет
  99.  
  100. Текст #2
  101. Идентификатор : 5
  102. Формат : UTF-8
  103. Идентификатор кодека : S_TEXT/UTF8
  104. Идентификатор кодека/Информация : UTF-8 Plain Text
  105. Продолжительность : 1 ч. 55 м.
  106. Битрейт : 90 бит/сек
  107. Count of elements : 1399
  108. Размер потока : 76,5 Кбайт (0%)
  109. Заголовок : Full [iTunes]
  110. Язык : Russian
  111. Default : Нет
  112. Forced : Нет
  113.  
  114. Текст #3
  115. Идентификатор : 6
  116. Формат : UTF-8
  117. Идентификатор кодека : S_TEXT/UTF8
  118. Идентификатор кодека/Информация : UTF-8 Plain Text
  119. Продолжительность : 1 ч. 50 м.
  120. Битрейт : 3 бит/сек
  121. Count of elements : 47
  122. Размер потока : 2,53 Кбайт (0%)
  123. Заголовок : Forced
  124. Язык : Ukrainian
  125. Default : Нет
  126. Forced : Нет
  127.  
  128. Текст #4
  129. Идентификатор : 7
  130. Формат : UTF-8
  131. Идентификатор кодека : S_TEXT/UTF8
  132. Идентификатор кодека/Информация : UTF-8 Plain Text
  133. Продолжительность : 1 ч. 55 м.
  134. Битрейт : 89 бит/сек
  135. Count of elements : 1398
  136. Размер потока : 75,0 Кбайт (0%)
  137. Заголовок : Full [iTunes]
  138. Язык : Ukrainian
  139. Default : Нет
  140. Forced : Нет
  141.  
  142. Текст #5
  143. Идентификатор : 8
  144. Формат : UTF-8
  145. Идентификатор кодека : S_TEXT/UTF8
  146. Идентификатор кодека/Информация : UTF-8 Plain Text
  147. Продолжительность : 57 м. 24 с.
  148. Битрейт : 2 бит/сек
  149. Count of elements : 29
  150. Размер потока : 1,01 Кбайт (0%)
  151. Заголовок : Forced
  152. Язык : English
  153. Default : Нет
  154. Forced : Нет
  155.  
  156. Текст #6
  157. Идентификатор : 9
  158. Формат : UTF-8
  159. Идентификатор кодека : S_TEXT/UTF8
  160. Идентификатор кодека/Информация : UTF-8 Plain Text
  161. Продолжительность : 1 ч. 55 м.
  162. Битрейт : 55 бит/сек
  163. Count of elements : 1360
  164. Размер потока : 46,5 Кбайт (0%)
  165. Заголовок : Full [iTunes]
  166. Язык : English
  167. Default : Нет
  168. Forced : Нет
  169.  
  170. Меню
  171. 00:00:00.000 : en:00:00:00.000
  172. 00:04:13.545 : en:00:04:13.545
  173. 00:12:32.919 : en:00:12:32.919
  174. 00:23:43.005 : en:00:23:43.005
  175. 00:36:03.161 : en:00:36:03.161
  176. 00:51:11.652 : en:00:51:11.652
  177. 00:59:16.595 : en:00:59:16.595
  178. 01:01:42.908 : en:01:01:42.908
  179. 01:07:42.517 : en:01:07:42.517
  180. 01:13:25.234 : en:01:13:25.234
  181. 01:20:02.256 : en:01:20:02.256
  182. 01:24:37.364 : en:01:24:37.364
  183. 01:31:25.271 : en:01:31:25.271
  184. 01:35:42.111 : en:01:35:42.111
  185. 01:40:51.128 : en:01:40:51.128
  186. 01:52:27.908 : en:01:52:27.908
RAW Paste Data