Advertisement
Guest User

vcopy and store

a guest
Aug 22nd, 2012
81
Never
Not a member of Pastebin yet? Sign Up, it unlocks many cool features!
  1. [h264 @ 0x2f3ee40] non-existing SPS 1 referenced in buffering period
  2. [h264 @ 0x2f3ee40] non-existing PPS referenced
  3. [h264 @ 0x2f3ee40] non-existing SPS 1 referenced in buffering period
  4. [h264 @ 0x2f3ee40] non-existing PPS 0 referenced
  5. [h264 @ 0x2f3ee40] decode_slice_header error
  6. [h264 @ 0x2f3ee40] no frame!
  7. [h264 @ 0x2f3ee40] non-existing SPS 1 referenced in buffering period
  8. [h264 @ 0x2f3ee40] non-existing PPS referenced
  9. [h264 @ 0x2f3ee40] non-existing SPS 1 referenced in buffering period
  10. [h264 @ 0x2f3ee40] non-existing PPS 0 referenced
  11. [h264 @ 0x2f3ee40] decode_slice_header error
  12. [h264 @ 0x2f3ee40] no frame!
  13. [h264 @ 0x2f3ee40] non-existing SPS 1 referenced in buffering period
  14. [h264 @ 0x2f3ee40] non-existing PPS referenced
  15. [h264 @ 0x2f3ee40] non-existing SPS 1 referenced in buffering period
  16. [h264 @ 0x2f3ee40] non-existing PPS 0 referenced
  17. [h264 @ 0x2f3ee40] decode_slice_header error
  18. [h264 @ 0x2f3ee40] no frame!
  19. [h264 @ 0x2f3ee40] mmco: unref short failure
  20. Last message repeated 3 times
  21. [h264 @ 0x2f3ee40] Increasing reorder buffer to 1
  22. [h264 @ 0x2f3ee40] Increasing reorder buffer to 2
  23. [h264 @ 0x2f3ee40] mmco: unref short failure
  24. Last message repeated 1 times
  25. [rtp @ 0x2ef3140] max_analyze_duration 5000000 reached at 5016000
  26. [rtp @ 0x2ef3140] Estimating duration from bitrate, this may be inaccurate
  27. Input #0, rtp, from 'rtp://239.0.12.1:5000':
  28. Duration: N/A, start: 79569.528989, bitrate: 384 kb/s
  29. Program 4
  30. Stream #0:1: Video: h264 (High) ([27][0][0][0] / 0x001B), yuv420p, 720x576 [SAR 12:11 DAR 15:11], 51.47 fps, 50 tbr, 90k tbn, 50 tbc
  31. Stream #0:4(eng): Audio: mp2 ([3][0][0][0] / 0x0003), 48000 Hz, stereo, s16, 128 kb/s
  32. Program 1
  33. Stream #0:2: Video: h264 (High) ([27][0][0][0] / 0x001B), yuv420p, 720x576 [SAR 12:11 DAR 15:11], 59.72 fps, 50 tbr, 90k tbn, 50 tbc
  34. Stream #0:3(eng): Audio: mp2 ([3][0][0][0] / 0x0003), 48000 Hz, stereo, s16, 128 kb/s
  35. Stream #0:0(eng): Audio: mp2 ([3][0][0][0] / 0x0003), 48000 Hz, stereo, s16, 128 kb/s
  36. Output #0, h264, to '/home/1.avi':
  37. Metadata:
  38. encoder : Lavf54.6.100
  39. Stream #0:0, 0, 1/90000: Video: h264 ([27][0][0][0] / 0x001B), yuv420p, 720x576 [SAR 12:11 DAR 15:11], 1/25, q=2-31, 51.47 fps, 90k tbn, 25 tbc
  40. Stream mapping:
  41. Stream #0:1 -> #0:0 (copy)
  42. Press [q] to stop, [?] for help
  43. RTP: missed 11417 packets0 size= 1185kB time=00:00:05.72 bitrate=1695.4kbits/s
  44. RTP: PT=21: bad cseq dc13 expected=af7a
  45. RTP: missed 11417 packets
  46. RTP: PT=21: bad cseq dc13 expected=af7a
  47. RTP: missed 11418 packets
  48. [rtp @ 0x2ef3140] Continuity check failed for pid 103 expected 13 got 4
  49. RTP: missed -1 packets
  50. [rtp @ 0x2ef3140] Continuity check failed for pid 403 expected 6 got 11
  51. RTP: missed -1 packets
  52. [rtp @ 0x2ef3140] Continuity check failed for pid 404 expected 10 got 1
  53. RTP: missed -1 packets
  54. Last message repeated 3 times
  55. [rtp @ 0x2ef3140] Continuity check failed for pid 105 expected 1 got 8
  56. RTP: missed -1 packets
  57. Last message repeated 6 times
  58. [rtp @ 0x2ef3140] Continuity check failed for pid 104 expected 7 got 14
  59. RTP: missed -1 packets
  60. Last message repeated 2 times
  61. [rtp @ 0x2ef3140] Continuity check failed for pid 101 expected 6 got 8
  62. RTP: missed -1 packets
  63. Last message repeated 20 times
  64. [rtp @ 0x2ef3140] Continuity check failed for pid 0 expected 6 got 15
  65. RTP: missed -1 packets
  66. Last message repeated 47 times
Advertisement
Advertisement
Advertisement
RAW Paste Data Copied
Advertisement