Need a unique gift idea?
A Pastebin account makes a great Christmas gift
SHARE
TWEET

Untitled

a guest Nov 21st, 2018 90 Never
Upgrade to PRO!
ENDING IN00days00hours00mins00secs
 
  1. General
  2. Unique ID                                : 310102547214258817639546242705411263991 (0xE94B9401B560CB68394B3D0BF26BCDF7)
  3. Complete name                            : Friends S02E01 The One With Ross' New Girlfriend 1080p BluRay Remux AVC DD 5.1-KST.mkv
  4. Format                                   : Matroska
  5. Format version                           : Version 2
  6. File size                                : 2.48 GiB
  7. Duration                                 : 22mn 13s
  8. Overall bit rate mode                    : Variable
  9. Overall bit rate                         : 16.0 Mbps
  10. Movie name                               : Friends Season 2 Disc 1
  11. Encoded date                             : UTC 2015-11-06 10:57:01
  12. Writing application                      : MakeMKV v1.9.7 win(x64-release)
  13. Writing library                          : libmakemkv v1.9.7 (1.3.0/1.4.1) win(x64-release)
  14.  
  15. Video
  16. ID                                       : 1
  17. Format                                   : AVC
  18. Format/Info                              : Advanced Video Codec
  19. Format profile                           : High@L4
  20. Format settings, CABAC                   : Yes
  21. Format settings, ReFrames                : 4 frames
  22. Codec ID                                 : V_MPEG4/ISO/AVC
  23. Duration                                 : 22mn 13s
  24. Bit rate mode                            : Variable
  25. Bit rate                                 : 15.0 Mbps
  26. Maximum bit rate                         : 24.0 Mbps
  27. Width                                    : 1 920 pixels
  28. Height                                   : 1 080 pixels
  29. Display aspect ratio                     : 16:9
  30. Frame rate mode                          : Constant
  31. Frame rate                               : 23.976 fps
  32. Color space                              : YUV
  33. Chroma subsampling                       : 4:2:0
  34. Bit depth                                : 8 bits
  35. Scan type                                : Progressive
  36. Bits/(Pixel*Frame)                       : 0.302
  37. Stream size                              : 2.33 GiB (94%)
  38. Writing library                          : x264 core 104 r1683 62997d6
  39. Encoding settings                        : cabac=1 / ref=3 / deblock=1:-1:-1 / analyse=0x3:0x133 / me=umh / subme=10 / psy=1 / psy_rd=1.00:0.25 / mixed_ref=1 / me_range=24 / chroma_me=1 / trellis=2 / 8x8dct=1 / cqm=0 / deadzone=6,6 / fast_pskip=0 / chroma_qp_offset=-4 / threads=12 / sliced_threads=0 / slices=1 / nr=0 / decimate=0 / interlaced=0 / constrained_intra=0 / bframes=2 / b_pyramid=2 / b_adapt=2 / b_bias=0 / direct=3 / weightb=1 / open_gop=2 / weightp=0 / keyint=24 / keyint_min=2 / scenecut=40 / intra_refresh=0 / rc_lookahead=24 / rc=2pass / mbtree=1 / bitrate=15000 / ratetol=1.0 / qcomp=0.80 / qpmin=4 / qpmax=51 / qpstep=4 / cplxblur=20.0 / qblur=0.5 / vbv_maxrate=24000 / vbv_bufsize=20000 / ip_ratio=1.10 / aq=1:0.50 / nal_hrd=vbr
  40. Language                                 : English
  41. Default                                  : No
  42. Forced                                   : No
  43. Color range                              : Limited
  44. Color primaries                          : BT.709
  45. Transfer characteristics                 : BT.709
  46. Matrix coefficients                      : BT.709
  47.  
  48. Audio
  49. ID                                       : 2
  50. Format                                   : AC-3
  51. Format/Info                              : Audio Coding 3
  52. Mode extension                           : CM (complete main)
  53. Format settings, Endianness              : Big
  54. Codec ID                                 : A_AC3
  55. Duration                                 : 22mn 13s
  56. Bit rate mode                            : Constant
  57. Bit rate                                 : 640 Kbps
  58. Channel(s)                               : 6 channels
  59. Channel positions                        : Front: L C R, Side: L R, LFE
  60. Sampling rate                            : 48.0 KHz
  61. Compression mode                         : Lossy
  62. Stream size                              : 102 MiB (4%)
  63. Title                                    : Surround 5.1
  64. Language                                 : English
  65. Default                                  : Yes
  66. Forced                                   : No
  67.  
  68. Text #1
  69. ID                                       : 3
  70. Format                                   : PGS
  71. Codec ID                                 : S_HDMV/PGS
  72. Codec ID/Info                            : Picture based subtitle format used on BDs/HD-DVDs
  73. Language                                 : English
  74. Default                                  : No
  75. Forced                                   : No
  76.  
  77. Text #2
  78. ID                                       : 5
  79. Format                                   : PGS
  80. Codec ID                                 : S_HDMV/PGS
  81. Codec ID/Info                            : Picture based subtitle format used on BDs/HD-DVDs
  82. Language                                 : French
  83. Default                                  : No
  84. Forced                                   : No
  85.  
  86. Text #3
  87. ID                                       : 7
  88. Format                                   : PGS
  89. Codec ID                                 : S_HDMV/PGS
  90. Codec ID/Info                            : Picture based subtitle format used on BDs/HD-DVDs
  91. Language                                 : German
  92. Default                                  : No
  93. Forced                                   : No
  94.  
  95. Text #4
  96. ID                                       : 9
  97. Format                                   : PGS
  98. Codec ID                                 : S_HDMV/PGS
  99. Codec ID/Info                            : Picture based subtitle format used on BDs/HD-DVDs
  100. Language                                 : Spanish
  101. Default                                  : No
  102. Forced                                   : No
  103.  
  104. Text #5
  105. ID                                       : 11
  106. Format                                   : PGS
  107. Codec ID                                 : S_HDMV/PGS
  108. Codec ID/Info                            : Picture based subtitle format used on BDs/HD-DVDs
  109. Language                                 : Dutch
  110. Default                                  : No
  111. Forced                                   : No
  112.  
  113. Text #6
  114. ID                                       : 13
  115. Format                                   : PGS
  116. Codec ID                                 : S_HDMV/PGS
  117. Codec ID/Info                            : Picture based subtitle format used on BDs/HD-DVDs
  118. Language                                 : Chinese
  119. Default                                  : No
  120. Forced                                   : No
  121.  
  122. Text #7
  123. ID                                       : 15
  124. Format                                   : PGS
  125. Codec ID                                 : S_HDMV/PGS
  126. Codec ID/Info                            : Picture based subtitle format used on BDs/HD-DVDs
  127. Language                                 : Spanish
  128. Default                                  : No
  129. Forced                                   : No
  130.  
  131. Text #8
  132. ID                                       : 17
  133. Format                                   : PGS
  134. Codec ID                                 : S_HDMV/PGS
  135. Codec ID/Info                            : Picture based subtitle format used on BDs/HD-DVDs
  136. Language                                 : Portuguese
  137. Default                                  : No
  138. Forced                                   : No
  139.  
  140. Text #9
  141. ID                                       : 19
  142. Format                                   : PGS
  143. Codec ID                                 : S_HDMV/PGS
  144. Codec ID/Info                            : Picture based subtitle format used on BDs/HD-DVDs
  145. Language                                 : Danish
  146. Default                                  : No
  147. Forced                                   : No
  148.  
  149. Text #10
  150. ID                                       : 21
  151. Format                                   : PGS
  152. Codec ID                                 : S_HDMV/PGS
  153. Codec ID/Info                            : Picture based subtitle format used on BDs/HD-DVDs
  154. Language                                 : Finnish
  155. Default                                  : No
  156. Forced                                   : No
  157.  
  158. Text #11
  159. ID                                       : 23
  160. Format                                   : PGS
  161. Codec ID                                 : S_HDMV/PGS
  162. Codec ID/Info                            : Picture based subtitle format used on BDs/HD-DVDs
  163. Language                                 : Norwegian
  164. Default                                  : No
  165. Forced                                   : No
  166.  
  167. Text #12
  168. ID                                       : 25
  169. Format                                   : PGS
  170. Codec ID                                 : S_HDMV/PGS
  171. Codec ID/Info                            : Picture based subtitle format used on BDs/HD-DVDs
  172. Language                                 : Swedish
  173. Default                                  : No
  174. Forced                                   : No
  175.  
  176. Menu
  177. 00:00:00.000                             : en:Chapter 01
  178. 00:00:47.547                             : en:Chapter 02
  179. 00:11:01.160                             : en:Chapter 03
  180. 00:21:21.905                             : en:Chapter 04
RAW Paste Data
We use cookies for various purposes including analytics. By continuing to use Pastebin, you agree to our use of cookies as described in the Cookies Policy. OK, I Understand
 
Top