Advertisement
Guest User

cue file

a guest
Jun 9th, 2010
159
Never
Not a member of Pastebin yet? Sign Up, it unlocks many cool features!
  1. REM GENRE Darkwave
  2. REM DATE 2004
  3. REM DISCID D80F5B0F
  4. REM COMMENT "Irond [IROND CD 04-814]"
  5. PERFORMER "SOPOR AETERNUS & THE ENSEMBLE OF SHADOWS"
  6. TITLE "ES REITEN DIE TOTEN SO SCHNELL (or: THE VAMPYRE SUCKING AT HIS OWN VEIN)"
  7. FILE "test.flac" FLAC
  8. TRACK 01 AUDIO
  9. TITLE "OMEN SINISTRUM"
  10. PERFORMER "SOPOR AETERNUS & THE ENSEMBLE OF SHADOWS"
  11. INDEX 01 00:00:00
  12. TRACK 02 AUDIO
  13. TITLE "DEAD SOULS"
  14. PERFORMER "SOPOR AETERNUS & THE ENSEMBLE OF SHADOWS"
  15. INDEX 01 02:46:47
  16. TRACK 03 AUDIO
  17. TITLE "STAKE OF MY SOUL"
  18. PERFORMER "SOPOR AETERNUS & THE ENSEMBLE OF SHADOWS"
  19. INDEX 01 09:51:16
  20. TRACK 04 AUDIO
  21. TITLE "BEAUTIFUL THORN"
  22. PERFORMER "SOPOR AETERNUS & THE ENSEMBLE OF SHADOWS"
  23. INDEX 01 12:53:14
  24. TRACK 05 AUDIO
  25. TITLE "BAPTISMA"
  26. PERFORMER "SOPOR AETERNUS & THE ENSEMBLE OF SHADOWS"
  27. INDEX 01 18:07:44
  28. TRACK 06 AUDIO
  29. TITLE "THE FEAST OF BLOOD"
  30. PERFORMER "SOPOR AETERNUS & THE ENSEMBLE OF SHADOWS"
  31. INDEX 01 24:45:18
  32. TRACK 07 AUDIO
  33. TITLE "SOPOR FRATREM MORTIS EST"
  34. PERFORMER "SOPOR AETERNUS & THE ENSEMBLE OF SHADOWS"
  35. INDEX 01 28:20:65
  36. TRACK 08 AUDIO
  37. TITLE "THE DREADFUL MIRROR"
  38. PERFORMER "SOPOR AETERNUS & THE ENSEMBLE OF SHADOWS"
  39. INDEX 01 33:54:56
  40. TRACK 09 AUDIO
  41. TITLE "REPRISE"
  42. PERFORMER "SOPOR AETERNUS & THE ENSEMBLE OF SHADOWS"
  43. INDEX 01 39:47:74
  44. TRACK 10 AUDIO
  45. TITLE "BIRTH-FIENDISH FIGURATION"
  46. PERFORMER "SOPOR AETERNUS & THE ENSEMBLE OF SHADOWS"
  47. INDEX 01 43:29:47
  48. TRACK 11 AUDIO
  49. TITLE "PENANCE & PAIN"
  50. PERFORMER "SOPOR AETERNUS & THE ENSEMBLE OF SHADOWS"
  51. INDEX 01 46:21:47
  52. TRACK 12 AUDIO
  53. TITLE "HOLY WATER MOONLIGHT"
  54. PERFORMER "SOPOR AETERNUS & THE ENSEMBLE OF SHADOWS"
  55. INDEX 01 50:48:42
  56. TRACK 13 AUDIO
  57. TITLE "INFANT"
  58. PERFORMER "SOPOR AETERNUS & THE ENSEMBLE OF SHADOWS"
  59. INDEX 01 56:00:24
  60. TRACK 14 AUDIO
  61. TITLE "üBER DEN FLUSS"
  62. PERFORMER "SOPOR AETERNUS & THE ENSEMBLE OF SHADOWS"
  63. INDEX 01 56:51:71
  64. TRACK 15 AUDIO
  65. TITLE "DARK DELIGHT"
  66. PERFORMER "SOPOR AETERNUS & THE ENSEMBLE OF SHADOWS"
  67. INDEX 01 58:56:49
Advertisement
RAW Paste Data Copied
Advertisement