SHARE
TWEET

Mallrats.1995.Theatrical.Cut.BluRay.1080p.DTS-HD.MA.5.1.VC-1.REMUX-FraMeSToR

a guest Jun 11th, 2019 29 Never
Not a member of Pastebin yet? Sign Up, it unlocks many cool features!
  1. General
  2. Unique ID                                : 215366121045012490886645007878648661839 (0xA2060193395EEFDA7041CE0D9286874F)
  3. Complete name                            : Mallrats.1995.Theatrical.Cut.BluRay.1080p.DTS-HD.MA.5.1.VC-1.REMUX-FraMeSToR.mkv
  4. Format                                   : Matroska
  5. Format version                           : Version 4
  6. File size                                : 23.9 GiB
  7. Duration                                 : 1 h 35 min
  8. Overall bit rate mode                    : Variable
  9. Overall bit rate                         : 35.9 Mb/s
  10. Movie name                               : Mallrats
  11. Encoded date                             : UTC 2017-07-06 23:17:56
  12. Writing application                      : mkvmerge v9.6.0 ('Slave To Your Mind') 64bit
  13. Writing library                          : libebml v1.3.4 + libmatroska v1.4.5
  14.  
  15. Video
  16. ID                                       : 1
  17. Format                                   : VC-1
  18. Format profile                           : Advanced@L3
  19. Codec ID                                 : V_MS/VFW/FOURCC / WVC1
  20. Codec ID/Hint                            : Microsoft
  21. Duration                                 : 1 h 35 min
  22. Bit rate                                 : 30.4 Mb/s
  23. Width                                    : 1 920 pixels
  24. Height                                   : 1 080 pixels
  25. Display aspect ratio                     : 16:9
  26. Frame rate mode                          : Constant
  27. Frame rate                               : 23.976 (24000/1001) FPS
  28. Color space                              : YUV
  29. Chroma subsampling                       : 4:2:0
  30. Bit depth                                : 8 bits
  31. Scan type                                : Progressive
  32. Compression mode                         : Lossy
  33. Bits/(Pixel*Frame)                       : 0.612
  34. Stream size                              : 20.2 GiB (85%)
  35. Default                                  : Yes
  36. Forced                                   : No
  37.  
  38. Audio
  39. ID                                       : 2
  40. Format                                   : DTS XLL
  41. Format/Info                              : Digital Theater Systems
  42. Commercial name                          : DTS-HD Master Audio
  43. Codec ID                                 : A_DTS
  44. Duration                                 : 1 h 35 min
  45. Bit rate mode                            : Variable
  46. Bit rate                                 : 4 495 kb/s
  47. Channel(s)                               : 6 channels
  48. Channel layout                           : C L R Ls Rs LFE
  49. Sampling rate                            : 48.0 kHz
  50. Frame rate                               : 93.750 FPS (512 SPF)
  51. Bit depth                                : 24 bits
  52. Compression mode                         : Lossless
  53. Stream size                              : 2.98 GiB (13%)
  54. Title                                    : DTS-HD MA 5.1
  55. Language                                 : English
  56. Default                                  : Yes
  57. Forced                                   : No
  58.  
  59. Text #1
  60. ID                                       : 3
  61. Format                                   : PGS
  62. Codec ID                                 : S_HDMV/PGS
  63. Codec ID/Info                            : Picture based subtitle format used on BDs/HD-DVDs
  64. Duration                                 : 1 h 29 min
  65. Bit rate                                 : 65.8 kb/s
  66. Count of elements                        : 3138
  67. Stream size                              : 42.1 MiB (0%)
  68. Title                                    : English (SDH)
  69. Language                                 : English
  70. Default                                  : No
  71. Forced                                   : No
  72.  
  73. Text #2
  74. ID                                       : 4
  75. Format                                   : PGS
  76. Codec ID                                 : S_HDMV/PGS
  77. Codec ID/Info                            : Picture based subtitle format used on BDs/HD-DVDs
  78. Duration                                 : 1 h 34 min
  79. Bit rate                                 : 50.7 kb/s
  80. Count of elements                        : 2884
  81. Stream size                              : 34.2 MiB (0%)
  82. Title                                    : French
  83. Language                                 : French
  84. Default                                  : No
  85. Forced                                   : No
  86.  
  87. Text #3
  88. ID                                       : 5
  89. Format                                   : PGS
  90. Codec ID                                 : S_HDMV/PGS
  91. Codec ID/Info                            : Picture based subtitle format used on BDs/HD-DVDs
  92. Duration                                 : 1 h 34 min
  93. Bit rate                                 : 49.5 kb/s
  94. Count of elements                        : 2873
  95. Stream size                              : 33.4 MiB (0%)
  96. Title                                    : Italian
  97. Language                                 : Italian
  98. Default                                  : No
  99. Forced                                   : No
  100.  
  101. Text #4
  102. ID                                       : 6
  103. Format                                   : PGS
  104. Codec ID                                 : S_HDMV/PGS
  105. Codec ID/Info                            : Picture based subtitle format used on BDs/HD-DVDs
  106. Duration                                 : 1 h 34 min
  107. Bit rate                                 : 58.2 kb/s
  108. Count of elements                        : 2882
  109. Stream size                              : 39.3 MiB (0%)
  110. Title                                    : German
  111. Language                                 : German
  112. Default                                  : No
  113. Forced                                   : No
  114.  
  115. Text #5
  116. ID                                       : 7
  117. Format                                   : PGS
  118. Codec ID                                 : S_HDMV/PGS
  119. Codec ID/Info                            : Picture based subtitle format used on BDs/HD-DVDs
  120. Duration                                 : 1 h 34 min
  121. Bit rate                                 : 54.9 kb/s
  122. Count of elements                        : 2884
  123. Stream size                              : 37.1 MiB (0%)
  124. Title                                    : Spanish (Castilian)
  125. Language                                 : Spanish
  126. Default                                  : No
  127. Forced                                   : No
  128.  
  129. Text #6
  130. ID                                       : 8
  131. Format                                   : PGS
  132. Codec ID                                 : S_HDMV/PGS
  133. Codec ID/Info                            : Picture based subtitle format used on BDs/HD-DVDs
  134. Duration                                 : 1 h 34 min
  135. Bit rate                                 : 53.8 kb/s
  136. Count of elements                        : 2880
  137. Stream size                              : 36.4 MiB (0%)
  138. Title                                    : Portuguese (Brazilian)
  139. Language                                 : Portuguese
  140. Default                                  : No
  141. Forced                                   : No
  142.  
  143. Text #7
  144. ID                                       : 9
  145. Format                                   : PGS
  146. Codec ID                                 : S_HDMV/PGS
  147. Codec ID/Info                            : Picture based subtitle format used on BDs/HD-DVDs
  148. Duration                                 : 1 h 34 min
  149. Bit rate                                 : 53.6 kb/s
  150. Count of elements                        : 2882
  151. Stream size                              : 36.2 MiB (0%)
  152. Title                                    : Spanish (Latin American)
  153. Language                                 : Spanish
  154. Default                                  : No
  155. Forced                                   : No
  156.  
  157. Text #8
  158. ID                                       : 10
  159. Format                                   : PGS
  160. Codec ID                                 : S_HDMV/PGS
  161. Codec ID/Info                            : Picture based subtitle format used on BDs/HD-DVDs
  162. Duration                                 : 1 h 34 min
  163. Bit rate                                 : 53.4 kb/s
  164. Count of elements                        : 2877
  165. Stream size                              : 36.1 MiB (0%)
  166. Title                                    : Danish
  167. Language                                 : Danish
  168. Default                                  : No
  169. Forced                                   : No
  170.  
  171. Text #9
  172. ID                                       : 11
  173. Format                                   : PGS
  174. Codec ID                                 : S_HDMV/PGS
  175. Codec ID/Info                            : Picture based subtitle format used on BDs/HD-DVDs
  176. Duration                                 : 1 h 34 min
  177. Bit rate                                 : 51.4 kb/s
  178. Count of elements                        : 2878
  179. Stream size                              : 34.7 MiB (0%)
  180. Title                                    : Dutch
  181. Language                                 : Dutch
  182. Default                                  : No
  183. Forced                                   : No
  184.  
  185. Text #10
  186. ID                                       : 12
  187. Format                                   : PGS
  188. Codec ID                                 : S_HDMV/PGS
  189. Codec ID/Info                            : Picture based subtitle format used on BDs/HD-DVDs
  190. Duration                                 : 1 h 34 min
  191. Bit rate                                 : 53.0 kb/s
  192. Count of elements                        : 2872
  193. Stream size                              : 35.9 MiB (0%)
  194. Title                                    : Finnish
  195. Language                                 : Finnish
  196. Default                                  : No
  197. Forced                                   : No
  198.  
  199. Text #11
  200. ID                                       : 13
  201. Format                                   : PGS
  202. Codec ID                                 : S_HDMV/PGS
  203. Codec ID/Info                            : Picture based subtitle format used on BDs/HD-DVDs
  204. Duration                                 : 1 h 34 min
  205. Bit rate                                 : 57.0 kb/s
  206. Count of elements                        : 2884
  207. Stream size                              : 38.5 MiB (0%)
  208. Title                                    : Greek (Modern)
  209. Language                                 : Greek
  210. Default                                  : No
  211. Forced                                   : No
  212.  
  213. Text #12
  214. ID                                       : 14
  215. Format                                   : PGS
  216. Codec ID                                 : S_HDMV/PGS
  217. Codec ID/Info                            : Picture based subtitle format used on BDs/HD-DVDs
  218. Duration                                 : 1 h 34 min
  219. Bit rate                                 : 32.6 kb/s
  220. Count of elements                        : 2884
  221. Stream size                              : 22.0 MiB (0%)
  222. Title                                    : Korean
  223. Language                                 : Korean
  224. Default                                  : No
  225. Forced                                   : No
  226.  
  227. Text #13
  228. ID                                       : 15
  229. Format                                   : PGS
  230. Codec ID                                 : S_HDMV/PGS
  231. Codec ID/Info                            : Picture based subtitle format used on BDs/HD-DVDs
  232. Duration                                 : 1 h 34 min
  233. Bit rate                                 : 47.7 kb/s
  234. Count of elements                        : 2885
  235. Stream size                              : 32.3 MiB (0%)
  236. Title                                    : Norwegian
  237. Language                                 : Norwegian
  238. Default                                  : No
  239. Forced                                   : No
  240.  
  241. Text #14
  242. ID                                       : 16
  243. Format                                   : PGS
  244. Codec ID                                 : S_HDMV/PGS
  245. Codec ID/Info                            : Picture based subtitle format used on BDs/HD-DVDs
  246. Duration                                 : 1 h 34 min
  247. Bit rate                                 : 49.6 kb/s
  248. Count of elements                        : 2857
  249. Stream size                              : 33.6 MiB (0%)
  250. Title                                    : Polish
  251. Language                                 : Polish
  252. Default                                  : No
  253. Forced                                   : No
  254.  
  255. Text #15
  256. ID                                       : 17
  257. Format                                   : PGS
  258. Codec ID                                 : S_HDMV/PGS
  259. Codec ID/Info                            : Picture based subtitle format used on BDs/HD-DVDs
  260. Duration                                 : 1 h 34 min
  261. Bit rate                                 : 53.4 kb/s
  262. Count of elements                        : 2887
  263. Stream size                              : 36.1 MiB (0%)
  264. Title                                    : Portuguese (Iberian)
  265. Language                                 : Portuguese
  266. Default                                  : No
  267. Forced                                   : No
  268.  
  269. Text #16
  270. ID                                       : 18
  271. Format                                   : PGS
  272. Codec ID                                 : S_HDMV/PGS
  273. Codec ID/Info                            : Picture based subtitle format used on BDs/HD-DVDs
  274. Duration                                 : 1 h 34 min
  275. Bit rate                                 : 50.3 kb/s
  276. Count of elements                        : 2882
  277. Stream size                              : 34.0 MiB (0%)
  278. Title                                    : Swedish
  279. Language                                 : Swedish
  280. Default                                  : No
  281. Forced                                   : No
  282.  
  283. Text #17
  284. ID                                       : 19
  285. Format                                   : PGS
  286. Codec ID                                 : S_HDMV/PGS
  287. Codec ID/Info                            : Picture based subtitle format used on BDs/HD-DVDs
  288. Duration                                 : 1 h 34 min
  289. Bit rate                                 : 41.8 kb/s
  290. Count of elements                        : 2885
  291. Stream size                              : 28.2 MiB (0%)
  292. Title                                    : Thai
  293. Language                                 : Thai
  294. Default                                  : No
  295. Forced                                   : No
  296.  
  297. Text #18
  298. ID                                       : 20
  299. Format                                   : PGS
  300. Codec ID                                 : S_HDMV/PGS
  301. Codec ID/Info                            : Picture based subtitle format used on BDs/HD-DVDs
  302. Duration                                 : 1 h 34 min
  303. Bit rate                                 : 52.9 kb/s
  304. Count of elements                        : 2883
  305. Stream size                              : 35.8 MiB (0%)
  306. Title                                    : Turkish
  307. Language                                 : Turkish
  308. Default                                  : No
  309. Forced                                   : No
  310.  
  311. Text #19
  312. ID                                       : 21
  313. Format                                   : PGS
  314. Codec ID                                 : S_HDMV/PGS
  315. Codec ID/Info                            : Picture based subtitle format used on BDs/HD-DVDs
  316. Duration                                 : 1 h 34 min
  317. Bit rate                                 : 42.8 kb/s
  318. Count of elements                        : 2881
  319. Stream size                              : 28.9 MiB (0%)
  320. Title                                    : Chinese (Mandarin)
  321. Language                                 : Chinese
  322. Default                                  : No
  323. Forced                                   : No
  324.  
  325. Text #20
  326. ID                                       : 22
  327. Format                                   : PGS
  328. Codec ID                                 : S_HDMV/PGS
  329. Codec ID/Info                            : Picture based subtitle format used on BDs/HD-DVDs
  330. Duration                                 : 1 h 29 min
  331. Bit rate                                 : 33.1 kb/s
  332. Count of elements                        : 2710
  333. Stream size                              : 21.3 MiB (0%)
  334. Title                                    : Japanese
  335. Language                                 : Japanese
  336. Default                                  : No
  337. Forced                                   : No
  338.  
  339. Menu
  340. 00:00:00.000                             : en:Main Titles
  341. 00:03:36.967                             : en:Julie Can't Make It
  342. 00:05:49.975                             : en:Brandi's Father
  343. 00:06:57.334                             : en:Breakfast Time
  344. 00:14:17.065                             : en:Willam
  345. 00:16:04.130                             : en:Hatchet Men
  346. 00:22:56.417                             : en:The Master Plan
  347. 00:28:01.513                             : en:Comic Book Store
  348. 00:32:08.552                             : en:Fashionable Male
  349. 00:36:43.201                             : en:Gwen
  350. 00:46:35.459                             : en:Mr. Svenning
  351. 00:55:02.549                             : en:At the Flea Market
  352. 00:56:42.190                             : en:Ivannah
  353. 01:02:49.933                             : en:Brodie & Stan Lee
  354. 01:11:00.465                             : en:Stage Business
  355. 01:23:14.198                             : en:Set Up
  356. 01:26:43.490                             : en:Happy Endings
  357. 01:28:55.413                             : en:End Titles
RAW Paste Data
We use cookies for various purposes including analytics. By continuing to use Pastebin, you agree to our use of cookies as described in the Cookies Policy. OK, I Understand
 
Top