SHARE
TWEET

Untitled

a guest Dec 26th, 2013 43 Never
Not a member of Pastebin yet? Sign Up, it unlocks many cool features!
  1. === Общие ===
  2. Полное имя                    : Syn.prokurora.1968.DVDRip.DivX.pca1962.avi
  3. Формат                        : AVI
  4. Описание формата              : Audio Video Interleave
  5. Профиль формата               : OpenDML
  6. Размер файла                  : 2.20 Гб
  7. Длительность                  : 2ч 29мин
  8. Общий битрейт                 : 2 101 кбит/сек
  9. Програмное обеспечение        : VirtualDubModRus 1.5.10.2 (build 2542/release)
  10. Кодирующая библиотека         : VirtualDubMod build 2542/release
  11.  
  12. === Видео ===
  13. ID (Идентификатор)            : 0
  14. Формат                        : MPEG-4 Visual
  15. Профиль формата               : Advanced Simple@L5
  16. Параметр 'BVOP'               : 2
  17. Параметр 'QPel'               : Нет
  18. Параметр 'GMC'                : No warppoints
  19. Параметр 'Matrix'             : Default (MPEG)
  20. Идентификатор кодека          : DX50
  21. Подпись кодека                : DivX 5
  22. Длительность                  : 2ч 29мин
  23. Битрейт                       : 1 699 кбит/сек
  24. Ширина кадра                  : 640 пикселей
  25. Высота кадра                  : 480 пикселей
  26. Соотношение сторон            : 4:3
  27. Частота кадров                : 23.976 кадров/сек
  28. Цветовое пространство         : YUV
  29. Субдискретизация насыщенности : 4:2:0
  30. Глубина (разрядность)         : 8 bits
  31. Тип развертки                 : Прогрессивная
  32. Режим сжатия                  : С потерями
  33. Бит/(пиксель*кадр)            : 0.231
  34. Размер потока                 : 1.78 Гб (81%)
  35. Кодирующая библиотека         : XviD 1.2.1 (UTC 2008-12-04)
  36.  
  37. === Аудио  1 ===
  38. ID (Идентификатор)            : 1
  39. Формат                        : AC-3
  40. Описание формата              : Audio Coding 3
  41. Mode extension                : CM (complete main)
  42. Идентификатор кодека          : 2000
  43. Длительность                  : 2ч 29мин
  44. Тип битрейта                  : Постоянный
  45. Битрейт                       : 192 кбит/сек
  46. Канал(ы)                      : 2 каналов
  47. Расположение каналов          : Front: L R
  48. Частота дискретизации         : 48.0 кГц
  49. Глубина (разрядность)         : 16 bits
  50. Режим сжатия                  : С потерями
  51. Размер потока                 : 205 Мб (9%)
  52. Расположение потока           : Split accross interleaves
  53. Период чередования            : 42 мс (1.00 video frame)
  54. Предварительная загрузка      : 500 мс
  55.  
  56. === Аудио  2 ===
  57. ID (Идентификатор)            : 2
  58. Формат                        : AC-3
  59. Описание формата              : Audio Coding 3
  60. Mode extension                : CM (complete main)
  61. Идентификатор кодека          : 2000
  62. Длительность                  : 2ч 29мин
  63. Тип битрейта                  : Постоянный
  64. Битрейт                       : 192 кбит/сек
  65. Канал(ы)                      : 2 каналов
  66. Расположение каналов          : Front: L R
  67. Частота дискретизации         : 48.0 кГц
  68. Глубина (разрядность)         : 16 bits
  69. Режим сжатия                  : С потерями
  70. Размер потока                 : 205 Мб (9%)
  71. Расположение потока           : Split accross interleaves
  72. Период чередования            : 42 мс (1.00 video frame)
  73. Предварительная загрузка      : 500 мс
RAW Paste Data
We use cookies for various purposes including analytics. By continuing to use Pastebin, you agree to our use of cookies as described in the Cookies Policy. OK, I Understand
 
Top