SHARE
TWEET

The.Last.Boy.Scout.1991.1080p.BluRay.x264-CiNEFiLE

a guest May 28th, 2019 28 Never
Not a member of Pastebin yet? Sign Up, it unlocks many cool features!
  1. General
  2. Unique ID                                : 223070892315853670321500605499805040564 (0xA7D1E420A6E2502FB45673CC34A07FB4)
  3. Complete name                            : The.Last.Boy.Scout.1991.1080p.BluRay.x264-CiNEFiLE.mkv
  4. Format                                   : Matroska
  5. Format version                           : Version 2
  6. File size                                : 7.94 GiB
  7. Duration                                 : 1 h 45 min
  8. Overall bit rate                         : 10.8 Mb/s
  9. Encoded date                             : UTC 2010-07-06 17:45:18
  10. Writing application                      : mkvmerge v4.1.1 ('Bouncin' Back') built on Jul  3 2010 22:54:08
  11. Writing library                          : libebml v1.0.0 + libmatroska v1.0.0
  12.  
  13. Video
  14. ID                                       : 1
  15. Format                                   : AVC
  16. Format/Info                              : Advanced Video Codec
  17. Format profile                           : High@L4
  18. Format settings                          : CABAC / 5 Ref Frames
  19. Format settings, CABAC                   : Yes
  20. Format settings, Reference frames        : 5 frames
  21. Codec ID                                 : V_MPEG4/ISO/AVC
  22. Duration                                 : 1 h 45 min
  23. Bit rate                                 : 9 282 kb/s
  24. Width                                    : 1 920 pixels
  25. Height                                   : 800 pixels
  26. Display aspect ratio                     : 2.40:1
  27. Frame rate mode                          : Constant
  28. Frame rate                               : 23.976 (24000/1001) FPS
  29. Color space                              : YUV
  30. Chroma subsampling                       : 4:2:0
  31. Bit depth                                : 8 bits
  32. Scan type                                : Progressive
  33. Bits/(Pixel*Frame)                       : 0.252
  34. Stream size                              : 6.67 GiB (84%)
  35. Writing library                          : x264 core 98 r1649 c54c47d
  36. Encoding settings                        : cabac=1 / ref=5 / deblock=1:0:0 / analyse=0x3:0x113 / me=umh / subme=7 / psy=1 / psy_rd=1.00:0.00 / mixed_ref=1 / me_range=16 / chroma_me=1 / trellis=1 / 8x8dct=1 / cqm=0 / deadzone=21,11 / fast_pskip=0 / chroma_qp_offset=-2 / threads=12 / sliced_threads=0 / nr=0 / decimate=1 / interlaced=0 / constrained_intra=0 / bframes=3 / b_pyramid=2 / b_adapt=1 / b_bias=0 / direct=1 / weightb=1 / weightp=2 / keyint=250 / keyint_min=25 / scenecut=40 / intra_refresh=0 / rc_lookahead=40 / rc=2pass / mbtree=1 / bitrate=9282 / ratetol=1.0 / qcomp=0.60 / qpmin=10 / qpmax=51 / qpstep=4 / cplxblur=20.0 / qblur=0.5 / ip_ratio=1.40 / aq=1:1.00
  37. Language                                 : English
  38. Default                                  : Yes
  39. Forced                                   : No
  40.  
  41. Audio
  42. ID                                       : 2
  43. Format                                   : DTS
  44. Format/Info                              : Digital Theater Systems
  45. Muxing mode                              : Header stripping
  46. Codec ID                                 : A_DTS
  47. Duration                                 : 1 h 45 min
  48. Bit rate mode                            : Constant
  49. Bit rate                                 : 1 509 kb/s
  50. Channel(s)                               : 6 channels
  51. Channel layout                           : C L R Ls Rs LFE
  52. Sampling rate                            : 48.0 kHz
  53. Frame rate                               : 93.750 FPS (512 SPF)
  54. Bit depth                                : 24 bits
  55. Compression mode                         : Lossy
  56. Stream size                              : 1.11 GiB (14%)
  57. Default                                  : Yes
  58. Forced                                   : No
  59.  
  60. Text
  61. ID                                       : 3
  62. Format                                   : UTF-8
  63. Codec ID                                 : S_TEXT/UTF8
  64. Codec ID/Info                            : UTF-8 Plain Text
  65. Language                                 : English
  66. Default                                  : No
  67. Forced                                   : No
RAW Paste Data
We use cookies for various purposes including analytics. By continuing to use Pastebin, you agree to our use of cookies as described in the Cookies Policy. OK, I Understand
 
Top