Advertisement
Guest User

Untitled

a guest
Jan 14th, 2022
26
Never
Not a member of Pastebin yet? Sign Up, it unlocks many cool features!
  1. General
  2. Unique ID : 209965502047225908504603729881209531477 (0x9DF5E280299C5034650A26C89B286C55)
  3. Complete name : L:The.Tragedy.of.Macbeth.2021.DUB.WEB-DL.x264.720p.mkv
  4. Format : Matroska
  5. Format version : Version 4
  6. File size : 2.39 GiB
  7. Duration : 1 h 45 min
  8. Overall bit rate : 3 254 kb/s
  9. Movie name : -=DoMiNo=-
  10. Encoded date : UTC 2022-01-14 08:35:48
  11. Writing application : mkvmerge v64.0.0 ('Willows') 64-bit
  12. Writing library : libebml v1.4.2 + libmatroska v1.6.4
  13. Cover : Yes
  14. Attachments : cover.jpg / cover 2.jpg
  15.  
  16. Video
  17. ID : 1
  18. Format : AVC
  19. Format/Info : Advanced Video Codec
  20. Format profile : High@L3.2
  21. Format settings : CABAC / 5 Ref Frames
  22. Format settings, CABAC : Yes
  23. Format settings, Reference : 5 frames
  24. Codec ID : V_MPEG4/ISO/AVC
  25. Duration : 1 h 45 min
  26. Bit rate : 2 803 kb/s
  27. Width : 1 122 pixels
  28. Height : 820 pixels
  29. Display aspect ratio : 4:3
  30. Frame rate mode : Constant
  31. Frame rate : 23.976 (24000/1001) FPS
  32. Color space : YUV
  33. Chroma subsampling : 4:2:0
  34. Bit depth : 8 bits
  35. Scan type : Progressive
  36. Bits/(Pixel*Frame) : 0.127
  37. Stream size : 2.06 GiB (86%)
  38. Language : English
  39. Default : Yes
  40. Forced : No
  41. Color range : Limited
  42. Color primaries : BT.709
  43. Transfer characteristics : BT.709
  44. Matrix coefficients : BT.709
  45.  
  46. Audio
  47. ID : 2
  48. Format : AC-3
  49. Format/Info : Audio Coding 3
  50. Commercial name : Dolby Digital
  51. Codec ID : A_AC3
  52. Duration : 1 h 45 min
  53. Bit rate mode : Constant
  54. Bit rate : 448 kb/s
  55. Channel(s) : 6 channels
  56. Channel layout : L R C LFE Ls Rs
  57. Sampling rate : 48.0 kHz
  58. Frame rate : 31.250 FPS (1536 SPF)
  59. Compression mode : Lossy
  60. Stream size : 337 MiB (14%)
  61. Title : DUB
  62. Language : Russian
  63. Service kind : Complete Main
  64. Default : Yes
  65. Forced : No
  66.  
  67. Text #1
  68. ID : 3
  69. Format : UTF-8
  70. Codec ID : S_TEXT/UTF8
  71. Codec ID/Info : UTF-8 Plain Text
  72. Duration : 1 h 31 min
  73. Bit rate : 0 b/s
  74. Count of elements : 3
  75. Stream size : 101 Bytes (0%)
  76. Title : Forced
  77. Language : Russian
  78. Default : No
  79. Forced : No
  80.  
  81. Text #2
  82. ID : 4
  83. Format : UTF-8
  84. Codec ID : S_TEXT/UTF8
  85. Codec ID/Info : UTF-8 Plain Text
  86. Duration : 1 h 44 min
  87. Bit rate : 100 b/s
  88. Count of elements : 1369
  89. Stream size : 76.6 KiB (0%)
  90. Language : Russian
  91. Default : No
  92. Forced : No
  93.  
  94. Text #3
  95. ID : 5
  96. Format : UTF-8
  97. Codec ID : S_TEXT/UTF8
  98. Codec ID/Info : UTF-8 Plain Text
  99. Duration : 1 h 44 min
  100. Bit rate : 110 b/s
  101. Count of elements : 1517
  102. Stream size : 84.7 KiB (0%)
  103. Title : SDH
  104. Language : Russian
  105. Default : No
  106. Forced : No
  107.  
  108. Text #4
  109. ID : 6
  110. Format : UTF-8
  111. Codec ID : S_TEXT/UTF8
  112. Codec ID/Info : UTF-8 Plain Text
  113. Duration : 1 h 44 min
  114. Bit rate : 100 b/s
  115. Count of elements : 1349
  116. Stream size : 76.7 KiB (0%)
  117. Language : Ukrainian
  118. Default : No
  119. Forced : No
Advertisement
Advertisement
Advertisement
RAW Paste Data Copied
Advertisement