SHARE
TWEET

[Kukui] Pocket Monsters Sun & Moon - 02v2 [720p][126EDD7F].mkv

HYBRID_BEING Dec 21st, 2016 316 Never
Not a member of Pastebin yet? Sign Up, it unlocks many cool features!
  1. General
  2. Unique ID                                : 207971686968595796082700217987177157076 (0x9C75E3D3E0D19807B5B52E88719091D4)
  3. Complete name                            : [Kukui] Pocket Monsters Sun & Moon - 02v2 [720p][126EDD7F].mkv
  4. Format                                   : Matroska
  5. Format version                           : Version 4 / Version 2
  6. File size                                : 413 MiB
  7. Duration                                 : 24mn 31s
  8. Overall bit rate                         : 2 356 Kbps
  9. Encoded date                             : UTC 2016-12-10 07:43:43
  10. Writing application                      : mkvmerge v8.2.0 ('World of Adventure') 64bit
  11. Writing library                          : libebml v1.3.1 + libmatroska v1.4.2
  12. Attachments                              : calibri.ttf / calibrib.ttf / candarab.ttf / corbelb.ttf / segoeuib.ttf / segoeuiz.ttf / SHOWG.TTF
  13.  
  14. Video
  15. ID                                       : 1
  16. Format                                   : AVC
  17. Format/Info                              : Advanced Video Codec
  18. Format profile                           : High 10@L5
  19. Format settings, CABAC                   : Yes
  20. Format settings, ReFrames                : 16 frames
  21. Codec ID                                 : V_MPEG4/ISO/AVC
  22. Duration                                 : 24mn 29s
  23. Bit rate                                 : 2 120 Kbps
  24. Width                                    : 1 280 pixels
  25. Height                                   : 720 pixels
  26. Display aspect ratio                     : 16:9
  27. Frame rate mode                          : Constant
  28. Frame rate                               : 23.976 (24000/1001) fps
  29. Color space                              : YUV
  30. Chroma subsampling                       : 4:2:0
  31. Bit depth                                : 10 bits
  32. Scan type                                : Progressive
  33. Bits/(Pixel*Frame)                       : 0.096
  34. Stream size                              : 371 MiB (90%)
  35. Writing library                          : x264 core 132 r2309 3b1f1f7
  36. Encoding settings                        : cabac=1 / ref=16 / deblock=1:0:0 / analyse=0x3:0x133 / me=umh / subme=10 / psy=1 / psy_rd=0.40:0.00 / mixed_ref=1 / me_range=24 / chroma_me=1 / trellis=2 / 8x8dct=1 / cqm=0 / deadzone=21,11 / fast_pskip=0 / chroma_qp_offset=-4 / threads=8 / lookahead_threads=2 / sliced_threads=0 / nr=0 / decimate=1 / interlaced=0 / bluray_compat=0 / constrained_intra=0 / bframes=16 / b_pyramid=2 / b_adapt=2 / b_bias=0 / direct=1 / weightb=1 / open_gop=0 / weightp=2 / keyint=240 / keyint_min=24 / scenecut=40 / intra_refresh=0 / rc_lookahead=60 / rc=crf / mbtree=1 / crf=16.0 / qcomp=0.60 / qpmin=0 / qpmax=81 / qpstep=4 / ip_ratio=1.40 / aq=1:0.80
  37. Language                                 : Japanese
  38. Default                                  : Yes
  39. Forced                                   : No
  40. Color range                              : Limited
  41. Color primaries                          : BT.709
  42. Transfer characteristics                 : BT.709
  43. Matrix coefficients                      : BT.709
  44.  
  45. Audio
  46. ID                                       : 2
  47. Format                                   : AAC
  48. Format/Info                              : Advanced Audio Codec
  49. Format profile                           : LC
  50. Codec ID                                 : A_AAC
  51. Duration                                 : 24mn 29s
  52. Bit rate                                 : 212 Kbps
  53. Channel(s)                               : 2 channels
  54. Channel positions                        : Front: L R
  55. Sampling rate                            : 48.0 KHz
  56. Frame rate                               : 46.875 fps (1024 spf)
  57. Compression mode                         : Lossy
  58. Delay relative to video                  : 20ms
  59. Stream size                              : 37.1 MiB (9%)
  60. Language                                 : Japanese
  61. Default                                  : Yes
  62. Forced                                   : No
  63.  
  64. Text
  65. ID                                       : 3
  66. Format                                   : ASS
  67. Codec ID                                 : S_TEXT/ASS
  68. Codec ID/Info                            : Advanced Sub Station Alpha
  69. Duration                                 : 24mn 31s
  70. Bit rate                                 : 133 bps
  71. Count of elements                        : 428
  72. Compression mode                         : Lossless
  73. Stream size                              : 24.0 KiB (0%)
  74. Language                                 : English
  75. Default                                  : Yes
  76. Forced                                   : No
  77.  
  78. Menu
  79. 00:00:00.000                             : en:Intro
  80. 00:01:31.049                             : en:Opening
  81. 00:02:59.096                             : en:Part A
  82. 00:09:09.966                             : en:Eyecatch
  83. 00:09:21.978                             : :Part B
  84. 00:22:39.024                             : en:Ending
  85. 00:23:59.980                             : en:Preview
RAW Paste Data
We use cookies for various purposes including analytics. By continuing to use Pastebin, you agree to our use of cookies as described in the Cookies Policy. OK, I Understand
Top