Guest User

Untitled

a guest
Jul 22nd, 2021
59
Never
Not a member of Pastebin yet? Sign Up, it unlocks many cool features!
  1. General
  2. Unique ID : 55901186759103047255814559462317237070 (0x2A0E2D4CA2AC0EFC3844E4CFA2D6234E)
  3. Complete name : G:\Video\Looper.2012.BDREMUX.2160p.HDR.seleZen.mkv
  4. Format : Matroska
  5. Format version : Version 4
  6. File size : 70.0 GiB
  7. Duration : 1 h 58 min
  8. Overall bit rate mode : Variable
  9. Overall bit rate : 84.5 Mb/s
  10. Movie name : Looper 2012 from seleZen
  11. Encoded date : UTC 2021-07-22 06:55:24
  12. Writing application : mkvmerge v53.0.0 ('Fool's Gold') 64-bit
  13. Writing library : libebml v1.4.1 + libmatroska v1.6.2
  14.  
  15. Video
  16. ID : 1
  17. Format : HEVC
  18. Format/Info : High Efficiency Video Coding
  19. Format profile : Main 10@L5.1@High
  20. HDR format : SMPTE ST 2094 App 4, Version 1, HDR10+ Profile B compatible
  21. Codec ID : V_MPEGH/ISO/HEVC
  22. Duration : 1 h 58 min
  23. Bit rate : 81.6 Mb/s
  24. Width : 3 840 pixels
  25. Height : 2 160 pixels
  26. Display aspect ratio : 16:9
  27. Frame rate mode : Constant
  28. Frame rate : 23.976 (24000/1001) FPS
  29. Color space : YUV
  30. Chroma subsampling : 4:2:0 (Type 2)
  31. Bit depth : 10 bits
  32. Bits/(Pixel*Frame) : 0.411
  33. Stream size : 67.7 GiB (97%)
  34. Language : English
  35. Default : Yes
  36. Forced : No
  37. Color range : Limited
  38. Color primaries : BT.2020
  39. Transfer characteristics : PQ
  40. Matrix coefficients : BT.2020 non-constant
  41. Mastering display color pri : Display P3
  42. Mastering display luminance : min: 0.0001 cd/m2, max: 1000 cd/m2
  43. Maximum Content Light Level : 1692 cd/m2
  44. Maximum Frame-Average Light : 732 cd/m2
  45.  
  46. Audio #1
  47. ID : 2
  48. Format : AC-3
  49. Format/Info : Audio Coding 3
  50. Commercial name : Dolby Digital
  51. Codec ID : A_AC3
  52. Duration : 1 h 58 min
  53. Bit rate mode : Constant
  54. Bit rate : 448 kb/s
  55. Channel(s) : 6 channels
  56. Channel layout : L R C LFE Ls Rs
  57. Sampling rate : 48.0 kHz
  58. Frame rate : 31.250 FPS (1536 SPF)
  59. Compression mode : Lossy
  60. Stream size : 380 MiB (1%)
  61. Title : Dub
  62. Language : Russian
  63. Service kind : Complete Main
  64. Default : Yes
  65. Forced : Yes
  66.  
  67. Audio #2
  68. ID : 3
  69. Format : DTS XLL
  70. Format/Info : Digital Theater Systems
  71. Commercial name : DTS-HD Master Audio
  72. Codec ID : A_DTS
  73. Duration : 1 h 58 min
  74. Bit rate mode : Variable
  75. Bit rate : 2 397 kb/s
  76. Channel(s) : 6 channels
  77. Channel layout : C L R Ls Rs LFE
  78. Sampling rate : 48.0 kHz
  79. Frame rate : 93.750 FPS (512 SPF)
  80. Bit depth : 16 bits
  81. Compression mode : Lossless
  82. Stream size : 1.99 GiB (3%)
  83. Title : Original
  84. Language : English
  85. Default : No
  86. Forced : No
  87.  
  88. Text #1
  89. ID : 4
  90. Format : UTF-8
  91. Codec ID : S_TEXT/UTF8
  92. Codec ID/Info : UTF-8 Plain Text
  93. Duration : 1 h 49 min
  94. Bit rate : 65 b/s
  95. Count of elements : 1031
  96. Stream size : 52.7 KiB (0%)
  97. Title : Groby
  98. Language : Russian
  99. Default : No
  100. Forced : No
  101.  
  102. Text #2
  103. ID : 5
  104. Format : UTF-8
  105. Codec ID : S_TEXT/UTF8
  106. Codec ID/Info : UTF-8 Plain Text
  107. Duration : 1 h 47 min
  108. Bit rate : 39 b/s
  109. Count of elements : 904
  110. Stream size : 30.6 KiB (0%)
  111. Language : English
  112. Default : No
  113. Forced : No
  114.  
  115. Menu
  116. 00:00:00.000 : en:Глава 01
  117. 00:04:11.084 : en:Глава 02
  118. 00:10:24.332 : en:Глава 03
  119. 00:21:10.603 : en:Глава 04
  120. 00:25:47.337 : en:Глава 05
  121. 00:31:39.314 : en:Глава 06
  122. 00:36:39.322 : en:Глава 07
  123. 00:41:34.909 : en:Глава 08
  124. 00:52:11.628 : en:Глава 09
  125. 00:57:12.262 : en:Глава 10
  126. 01:01:43.116 : en:Глава 11
  127. 01:07:58.032 : en:Глава 12
  128. 01:12:55.037 : en:Глава 13
  129. 01:18:13.689 : en:Глава 14
  130. 01:23:45.854 : en:Глава 15
  131. 01:31:35.198 : en:Глава 16
  132. 01:34:16.150 : en:Глава 17
  133. 01:37:06.571 : en:Глава 18
  134. 01:40:52.546 : en:Глава 19
  135. 01:50:53.272 : en:Глава 20
  136.  
  137.  
RAW Paste Data