SHARE
TWEET

Superbad.2007.Unrated.1080p.BluRay.REMUX.AVC.TrueHD.5.1-EPSiLON

a guest May 18th, 2019 26 Never
Not a member of Pastebin yet? Sign Up, it unlocks many cool features!
  1. General
  2. Complete name                            : Superbad.2007.Unrated.1080p.BluRay.REMUX.AVC.TrueHD.5.1-EPSiLON.mkv
  3. Format                                   : Matroska
  4. Format version                           : Version 4
  5. File size                                : 25.4 GiB
  6. Duration                                 : 1 h 58 min
  7. Overall bit rate mode                    : Variable
  8. Overall bit rate                         : 30.7 Mb/s
  9. Encoded date                             : UTC 2018-10-16 05:18:00
  10. Writing application                      : mkvmerge v27.0.0 ('Metropolis') 64-bit
  11. Writing library                          : libebml v1.3.6 + libmatroska v1.4.9
  12.  
  13. Video
  14. ID                                       : 1
  15. Format                                   : AVC
  16. Format/Info                              : Advanced Video Codec
  17. Format profile                           : High@L4.1
  18. Format settings                          : CABAC / 2 Ref Frames
  19. Format settings, CABAC                   : Yes
  20. Format settings, Reference frames        : 2 frames
  21. Format settings, GOP                     : M=1, N=10
  22. Codec ID                                 : V_MPEG4/ISO/AVC
  23. Duration                                 : 1 h 58 min
  24. Bit rate mode                            : Variable
  25. Bit rate                                 : 27.7 Mb/s
  26. Width                                    : 1 920 pixels
  27. Height                                   : 1 080 pixels
  28. Display aspect ratio                     : 16:9
  29. Frame rate mode                          : Constant
  30. Frame rate                               : 23.976 (24000/1001) FPS
  31. Color space                              : YUV
  32. Chroma subsampling                       : 4:2:0
  33. Bit depth                                : 8 bits
  34. Scan type                                : Progressive
  35. Bits/(Pixel*Frame)                       : 0.558
  36. Stream size                              : 23.0 GiB (90%)
  37. Title                                    : MPEG-4 AVC Video / 27740 kbps / 1080p / 23.976 fps / 16:9 / High Profile 4.1
  38. Language                                 : English
  39. Default                                  : Yes
  40. Forced                                   : No
  41.  
  42. Audio #1
  43. ID                                       : 2
  44. Format                                   : MLP FBA
  45. Format/Info                              : Meridian Lossless Packing FBA
  46. Commercial name                          : Dolby TrueHD
  47. Codec ID                                 : A_TRUEHD
  48. Duration                                 : 1 h 58 min
  49. Bit rate mode                            : Variable
  50. Bit rate                                 : 1 522 kb/s
  51. Maximum bit rate                         : 2 643 kb/s
  52. Channel(s)                               : 6 channels
  53. Channel layout                           : L R C LFE Ls Rs
  54. Sampling rate                            : 48.0 kHz
  55. Frame rate                               : 1 200.000 FPS (40 SPF)
  56. Compression mode                         : Lossless
  57. Stream size                              : 1.26 GiB (5%)
  58. Title                                    : Dolby TrueHD Audio / 5.1 / 48 kHz / 1522 kbps / 16-bit
  59. Language                                 : English
  60. Default                                  : Yes
  61. Forced                                   : No
  62.  
  63. Audio #2
  64. ID                                       : 3
  65. Format                                   : AC-3
  66. Format/Info                              : Audio Coding 3
  67. Commercial name                          : Dolby Digital
  68. Codec ID                                 : A_AC3
  69. Duration                                 : 1 h 58 min
  70. Bit rate mode                            : Constant
  71. Bit rate                                 : 640 kb/s
  72. Channel(s)                               : 6 channels
  73. Channel layout                           : L R C LFE Ls Rs
  74. Sampling rate                            : 48.0 kHz
  75. Frame rate                               : 31.250 FPS (1536 SPF)
  76. Bit depth                                : 16 bits
  77. Compression mode                         : Lossy
  78. Stream size                              : 543 MiB (2%)
  79. Title                                    : Compatibility Track / Dolby Digital Audio / 5.1 / 48 kHz / 640 kbps
  80. Language                                 : English
  81. Service kind                             : Complete Main
  82. Default                                  : No
  83. Forced                                   : No
  84.  
  85. Audio #3
  86. ID                                       : 4
  87. Format                                   : AC-3
  88. Format/Info                              : Audio Coding 3
  89. Commercial name                          : Dolby Digital
  90. Codec ID                                 : A_AC3
  91. Duration                                 : 1 h 58 min
  92. Bit rate mode                            : Constant
  93. Bit rate                                 : 192 kb/s
  94. Channel(s)                               : 2 channels
  95. Channel layout                           : L R
  96. Sampling rate                            : 48.0 kHz
  97. Frame rate                               : 31.250 FPS (1536 SPF)
  98. Bit depth                                : 16 bits
  99. Compression mode                         : Lossy
  100. Stream size                              : 163 MiB (1%)
  101. Title                                    : Commentary by producer Judd Apatow, director Greg Mottola, screenwriter Evan Goldberg, and stars Jonah Hill, Michael Cera, Seth Rogen, and Christopher Mintz-Plasse
  102. Language                                 : English
  103. Service kind                             : Complete Main
  104. Default                                  : No
  105. Forced                                   : No
  106.  
  107. Text #1
  108. ID                                       : 5
  109. Format                                   : PGS
  110. Codec ID                                 : S_HDMV/PGS
  111. Codec ID/Info                            : Picture based subtitle format used on BDs/HD-DVDs
  112. Duration                                 : 1 h 56 min
  113. Bit rate                                 : 50.4 kb/s
  114. Count of elements                        : 3884
  115. Stream size                              : 42.0 MiB (0%)
  116. Language                                 : English
  117. Default                                  : No
  118. Forced                                   : No
  119.  
  120. Text #2
  121. ID                                       : 6
  122. Format                                   : PGS
  123. Codec ID                                 : S_HDMV/PGS
  124. Codec ID/Info                            : Picture based subtitle format used on BDs/HD-DVDs
  125. Duration                                 : 1 h 58 min
  126. Bit rate                                 : 38.3 kb/s
  127. Count of elements                        : 4226
  128. Stream size                              : 32.4 MiB (0%)
  129. Title                                    : SDH
  130. Language                                 : English
  131. Default                                  : No
  132. Forced                                   : No
  133.  
  134. Text #3
  135. ID                                       : 7
  136. Format                                   : PGS
  137. Codec ID                                 : S_HDMV/PGS
  138. Codec ID/Info                            : Picture based subtitle format used on BDs/HD-DVDs
  139. Duration                                 : 1 h 56 min
  140. Bit rate                                 : 44.9 kb/s
  141. Count of elements                        : 3920
  142. Stream size                              : 37.5 MiB (0%)
  143. Title                                    : Mandarin Traditional
  144. Language                                 : Chinese
  145. Default                                  : No
  146. Forced                                   : No
  147.  
  148. Text #4
  149. ID                                       : 8
  150. Format                                   : PGS
  151. Codec ID                                 : S_HDMV/PGS
  152. Codec ID/Info                            : Picture based subtitle format used on BDs/HD-DVDs
  153. Duration                                 : 1 h 56 min
  154. Bit rate                                 : 34.1 kb/s
  155. Count of elements                        : 3544
  156. Stream size                              : 28.5 MiB (0%)
  157. Language                                 : French
  158. Default                                  : No
  159. Forced                                   : No
  160.  
  161. Text #5
  162. ID                                       : 9
  163. Format                                   : PGS
  164. Codec ID                                 : S_HDMV/PGS
  165. Codec ID/Info                            : Picture based subtitle format used on BDs/HD-DVDs
  166. Duration                                 : 1 h 57 min
  167. Bit rate                                 : 34.5 kb/s
  168. Count of elements                        : 3918
  169. Stream size                              : 29.1 MiB (0%)
  170. Language                                 : Korean
  171. Default                                  : No
  172. Forced                                   : No
  173.  
  174. Text #6
  175. ID                                       : 10
  176. Format                                   : PGS
  177. Codec ID                                 : S_HDMV/PGS
  178. Codec ID/Info                            : Picture based subtitle format used on BDs/HD-DVDs
  179. Duration                                 : 1 h 52 min
  180. Bit rate                                 : 51.2 kb/s
  181. Count of elements                        : 3932
  182. Stream size                              : 41.3 MiB (0%)
  183. Title                                    : Iberian
  184. Language                                 : Portuguese
  185. Default                                  : No
  186. Forced                                   : No
  187.  
  188. Text #7
  189. ID                                       : 11
  190. Format                                   : PGS
  191. Codec ID                                 : S_HDMV/PGS
  192. Codec ID/Info                            : Picture based subtitle format used on BDs/HD-DVDs
  193. Duration                                 : 1 h 57 min
  194. Bit rate                                 : 41.7 kb/s
  195. Count of elements                        : 3912
  196. Stream size                              : 35.2 MiB (0%)
  197. Title                                    : Latin American
  198. Language                                 : Spanish
  199. Default                                  : No
  200. Forced                                   : No
  201.  
  202. Text #8
  203. ID                                       : 12
  204. Format                                   : PGS
  205. Codec ID                                 : S_HDMV/PGS
  206. Codec ID/Info                            : Picture based subtitle format used on BDs/HD-DVDs
  207. Duration                                 : 1 h 58 min
  208. Bit rate                                 : 58.4 kb/s
  209. Count of elements                        : 5480
  210. Stream size                              : 49.5 MiB (0%)
  211. Title                                    : Commentary by producer Judd Apatow, director Greg Mottola, screenwriter Evan Goldberg, and stars Jonah Hill, Michael Cera, Seth Rogen, and Christopher Mintz-Plasse
  212. Language                                 : Korean
  213. Default                                  : No
  214. Forced                                   : No
  215.  
  216. Text #9
  217. ID                                       : 13
  218. Format                                   : PGS
  219. Codec ID                                 : S_HDMV/PGS
  220. Codec ID/Info                            : Picture based subtitle format used on BDs/HD-DVDs
  221. Duration                                 : 1 h 58 min
  222. Bit rate                                 : 75.8 kb/s
  223. Count of elements                        : 5464
  224. Stream size                              : 64.2 MiB (0%)
  225. Title                                    : Commentary by producer Judd Apatow, director Greg Mottola, screenwriter Evan Goldberg, and stars Jonah Hill, Michael Cera, Seth Rogen, and Christopher Mintz- (Iberian)
  226. Language                                 : Portuguese
  227. Default                                  : No
  228. Forced                                   : No
  229.  
  230. Text #10
  231. ID                                       : 14
  232. Format                                   : PGS
  233. Codec ID                                 : S_HDMV/PGS
  234. Codec ID/Info                            : Picture based subtitle format used on BDs/HD-DVDs
  235. Duration                                 : 1 h 58 min
  236. Bit rate                                 : 77.8 kb/s
  237. Count of elements                        : 5496
  238. Stream size                              : 65.9 MiB (0%)
  239. Title                                    : Commentary by producer Judd Apatow, director Greg Mottola, screenwriter Evan Goldberg, and stars Jonah Hill, Michael Cera, Seth Rogen, and Christopher Mintz-Plasse (Latin American)
  240. Language                                 : Spanish
  241. Default                                  : No
  242. Forced                                   : No
  243.  
  244. Menu
  245. 00:00:00.000                             : en:Chapter 1
  246. 00:07:43.004                             : en:Chapter 2
  247. 00:17:07.235                             : en:Chapter 3
  248. 00:22:30.391                             : en:Chapter 4
  249. 00:29:28.558                             : en:Chapter 5
  250. 00:33:56.868                             : en:Chapter 6
  251. 00:38:22.926                             : en:Chapter 7
  252. 00:48:06.592                             : en:Chapter 8
  253. 00:54:35.898                             : en:Chapter 9
  254. 01:04:19.272                             : en:Chapter 10
  255. 01:12:03.194                             : en:Chapter 11
  256. 01:20:47.009                             : en:Chapter 12
  257. 01:27:59.232                             : en:Chapter 13
  258. 01:32:27.041                             : en:Chapter 14
  259. 01:37:29.927                             : en:Chapter 15
  260. 01:44:42.276                             : en:Chapter 16
RAW Paste Data
We use cookies for various purposes including analytics. By continuing to use Pastebin, you agree to our use of cookies as described in the Cookies Policy. OK, I Understand
 
Top